  0
SECTION
  2
HEADER
  9
$ACADVER
  1
AC1015
  9
$ACADMAINTVER
 70
     6
  9
$DWGCODEPAGE
  3
ANSI_1252
  9
$INSBASE
 10
0.0
 20
0.0
 30
0.0
  9
$EXTMIN
 10
-102.4999952001129
 20
326.6076960317851
 30
0.0
  9
$EXTMAX
 10
194.5000047998852
 20
536.6076960317852
 30
0.0
  9
$LIMMIN
 10
0.0
 20
0.0
  9
$LIMMAX
 10
12.0
 20
9.0
  9
$ORTHOMODE
 70
     0
  9
$REGENMODE
 70
     1
  9
$FILLMODE
 70
     1
  9
$QTEXTMODE
 70
     0
  9
$MIRRTEXT
 70
     1
  9
$LTSCALE
 40
1.0
  9
$ATTMODE
 70
     1
  9
$TEXTSIZE
 40
0.2
  9
$TRACEWID
 40
0.05
  9
$TEXTSTYLE
  7
Standard
  9
$CLAYER
  8
0
  9
$CELTYPE
  6
ByLayer
  9
$CECOLOR
 62
   256
  9
$CELTSCALE
 40
1.0
  9
$DISPSILH
 70
     0
  9
$DIMSCALE
 40
1.0
  9
$DIMASZ
 40
0.18
  9
$DIMEXO
 40
0.0625
  9
$DIMDLI
 40
0.38
  9
$DIMRND
 40
0.0
  9
$DIMDLE
 40
0.0
  9
$DIMEXE
 40
0.18
  9
$DIMTP
 40
0.0
  9
$DIMTM
 40
0.0
  9
$DIMTXT
 40
0.18
  9
$DIMCEN
 40
0.09
  9
$DIMTSZ
 40
0.0
  9
$DIMTOL
 70
     0
  9
$DIMLIM
 70
     0
  9
$DIMTIH
 70
     1
  9
$DIMTOH
 70
     1
  9
$DIMSE1
 70
     0
  9
$DIMSE2
 70
     0
  9
$DIMTAD
 70
     0
  9
$DIMZIN
 70
     0
  9
$DIMBLK
  1

  9
$DIMASO
 70
     1
  9
$DIMSHO
 70
     1
  9
$DIMPOST
  1

  9
$DIMAPOST
  1

  9
$DIMALT
 70
     0
  9
$DIMALTD
 70
     2
  9
$DIMALTF
 40
25.4
  9
$DIMLFAC
 40
1.0
  9
$DIMTOFL
 70
     0
  9
$DIMTVP
 40
0.0
  9
$DIMTIX
 70
     0
  9
$DIMSOXD
 70
     0
  9
$DIMSAH
 70
     0
  9
$DIMBLK1
  1

  9
$DIMBLK2
  1

  9
$DIMSTYLE
  2
Standard
  9
$DIMCLRD
 70
     0
  9
$DIMCLRE
 70
     0
  9
$DIMCLRT
 70
     0
  9
$DIMTFAC
 40
1.0
  9
$DIMGAP
 40
0.09
  9
$DIMJUST
 70
     0
  9
$DIMSD1
 70
     0
  9
$DIMSD2
 70
     0
  9
$DIMTOLJ
 70
     1
  9
$DIMTZIN
 70
     0
  9
$DIMALTZ
 70
     0
  9
$DIMALTTZ
 70
     0
  9
$DIMUPT
 70
     0
  9
$DIMDEC
 70
     4
  9
$DIMTDEC
 70
     4
  9
$DIMALTU
 70
     2
  9
$DIMALTTD
 70
     2
  9
$DIMTXSTY
  7
Standard
  9
$DIMAUNIT
 70
     0
  9
$DIMADEC
 70
     0
  9
$DIMALTRND
 40
0.0
  9
$DIMAZIN
 70
     0
  9
$DIMDSEP
 70
    46
  9
$DIMATFIT
 70
     3
  9
$DIMFRAC
 70
     0
  9
$DIMLDRBLK
  1

  9
$DIMLUNIT
 70
     2
  9
$DIMLWD
 70
    -2
  9
$DIMLWE
 70
    -2
  9
$DIMTMOVE
 70
     0
  9
$LUNITS
 70
     2
  9
$LUPREC
 70
     4
  9
$SKETCHINC
 40
0.1
  9
$FILLETRAD
 40
0.5
  9
$AUNITS
 70
     0
  9
$AUPREC
 70
     0
  9
$MENU
  1
.
  9
$ELEVATION
 40
0.0
  9
$PELEVATION
 40
0.0
  9
$THICKNESS
 40
0.0
  9
$LIMCHECK
 70
     0
  9
$CHAMFERA
 40
0.5
  9
$CHAMFERB
 40
0.5
  9
$CHAMFERC
 40
1.0
  9
$CHAMFERD
 40
0.0
  9
$SKPOLY
 70
     0
  9
$TDCREATE
 40
2457907.342201134
  9
$TDUCREATE
 40
2457907.258867801
  9
$TDUPDATE
 40
2457907.342203299
  9
$TDUUPDATE
 40
2457907.258869965
  9
$TDINDWG
 40
0.0000000116
  9
$TDUSRTIMER
 40
0.0000000116
  9
$USRTIMER
 70
     1
  9
$ANGBASE
 50
0.0
  9
$ANGDIR
 70
     0
  9
$PDMODE
 70
     0
  9
$PDSIZE
 40
0.0
  9
$PLINEWID
 40
0.0
  9
$SPLFRAME
 70
     0
  9
$SPLINETYPE
 70
     6
  9
$SPLINESEGS
 70
     8
  9
$HANDSEED
  5
278
  9
$SURFTAB1
 70
     6
  9
$SURFTAB2
 70
     6
  9
$SURFTYPE
 70
     6
  9
$SURFU
 70
     6
  9
$SURFV
 70
     6
  9
$UCSBASE
  2

  9
$UCSNAME
  2

  9
$UCSORG
 10
0.0
 20
0.0
 30
0.0
  9
$UCSXDIR
 10
1.0
 20
0.0
 30
0.0
  9
$UCSYDIR
 10
0.0
 20
1.0
 30
0.0
  9
$UCSORTHOREF
  2

  9
$UCSORTHOVIEW
 70
     0
  9
$UCSORGTOP
 10
0.0
 20
0.0
 30
0.0
  9
$UCSORGBOTTOM
 10
0.0
 20
0.0
 30
0.0
  9
$UCSORGLEFT
 10
0.0
 20
0.0
 30
0.0
  9
$UCSORGRIGHT
 10
0.0
 20
0.0
 30
0.0
  9
$UCSORGFRONT
 10
0.0
 20
0.0
 30
0.0
  9
$UCSORGBACK
 10
0.0
 20
0.0
 30
0.0
  9
$PUCSBASE
  2

  9
$PUCSNAME
  2

  9
$PUCSORG
 10
0.0
 20
0.0
 30
0.0
  9
$PUCSXDIR
 10
1.0
 20
0.0
 30
0.0
  9
$PUCSYDIR
 10
0.0
 20
1.0
 30
0.0
  9
$PUCSORTHOREF
  2

  9
$PUCSORTHOVIEW
 70
     0
  9
$PUCSORGTOP
 10
0.0
 20
0.0
 30
0.0
  9
$PUCSORGBOTTOM
 10
0.0
 20
0.0
 30
0.0
  9
$PUCSORGLEFT
 10
0.0
 20
0.0
 30
0.0
  9
$PUCSORGRIGHT
 10
0.0
 20
0.0
 30
0.0
  9
$PUCSORGFRONT
 10
0.0
 20
0.0
 30
0.0
  9
$PUCSORGBACK
 10
0.0
 20
0.0
 30
0.0
  9
$USERI1
 70
     0
  9
$USERI2
 70
     0
  9
$USERI3
 70
     0
  9
$USERI4
 70
     0
  9
$USERI5
 70
     0
  9
$USERR1
 40
18.1
  9
$USERR2
 40
0.0
  9
$USERR3
 40
0.0
  9
$USERR4
 40
0.0
  9
$USERR5
 40
0.0
  9
$WORLDVIEW
 70
     1
  9
$SHADEDGE
 70
     3
  9
$SHADEDIF
 70
    70
  9
$TILEMODE
 70
     1
  9
$MAXACTVP
 70
    64
  9
$PINSBASE
 10
0.0
 20
0.0
 30
0.0
  9
$PLIMCHECK
 70
     0
  9
$PEXTMIN
 10
1.00000000000000E+20
 20
1.00000000000000E+20
 30
1.00000000000000E+20
  9
$PEXTMAX
 10
-1.00000000000000E+20
 20
-1.00000000000000E+20
 30
-1.00000000000000E+20
  9
$PLIMMIN
 10
0.0
 20
0.0
  9
$PLIMMAX
 10
12.0
 20
9.0
  9
$UNITMODE
 70
     0
  9
$VISRETAIN
 70
     1
  9
$PLINEGEN
 70
     0
  9
$PSLTSCALE
 70
     1
  9
$TREEDEPTH
 70
  3020
  9
$CMLSTYLE
  2
Standard
  9
$CMLJUST
 70
     0
  9
$CMLSCALE
 40
1.0
  9
$PROXYGRAPHICS
 70
     1
  9
$MEASUREMENT
 70
     1
  9
$CELWEIGHT
370
    -1
  9
$ENDCAPS
280
     0
  9
$JOINSTYLE
280
     0
  9
$LWDISPLAY
290
     0
  9
$INSUNITS
 70
     4
  9
$HYPERLINKBASE
  1

  9
$STYLESHEET
  1

  9
$XEDIT
290
     1
  9
$CEPSNTYPE
380
     0
  9
$PSTYLEMODE
290
     1
  9
$FINGERPRINTGUID
  2
{DE4A8F46-7928-459D-8BF2-F11F2635FCFD}
  9
$VERSIONGUID
  2
{FAEB1C32-E019-11D5-929B-00C0DF256EC4}
  9
$EXTNAMES
290
     1
  9
$PSVPSCALE
 40
0.0
  9
$OLESTARTUP
290
     0
  0
ENDSEC
  0
SECTION
  2
CLASSES
  0
CLASS
  1
ACDBDICTIONARYWDFLT
  2
AcDbDictionaryWithDefault
  3
ObjectDBX Classes
 90
        0
280
     0
281
     0
  0
CLASS
  1
VISUALSTYLE
  2
AcDbVisualStyle
  3
ObjectDBX Classes
 90
     4095
280
     0
281
     0
  0
CLASS
  1
MATERIAL
  2
AcDbMaterial
  3
ObjectDBX Classes
 90
     1153
280
     0
281
     0
  0
CLASS
  1
DICTIONARYVAR
  2
AcDbDictionaryVar
  3
ObjectDBX Classes
 90
        0
280
     0
281
     0
  0
CLASS
  1
ACDBPLACEHOLDER
  2
AcDbPlaceHolder
  3
ObjectDBX Classes
 90
        0
280
     0
281
     0
  0
CLASS
  1
LAYOUT
  2
AcDbLayout
  3
ObjectDBX Classes
 90
        0
280
     0
281
     0
  0
ENDSEC
  0
SECTION
  2
TABLES
  0
TABLE
  2
VPORT
  5
8
330
0
100
AcDbSymbolTable
 70
     1
  0
VPORT
  5
29
330
8
100
AcDbSymbolTableRecord
100
AcDbViewportTableRecord
  2
*Active
 70
     0
 10
0.0
 20
0.0
 11
1.0
 21
1.0
 12
46.00000479988615
 22
431.6076960317852
 13
0.0
 23
0.0
 14
0.5
 24
0.5
 15
0.5
 25
0.5
 16
0.0
 26
0.0
 36
1.0
 17
0.0
 27
0.0
 37
0.0
 40
231.0000000000001
 41
1.60267857142857
 42
50.0
 43
0.0
 44
0.0
 50
0.0
 51
0.0
 71
     0
 72
   100
 73
     1
 74
     3
 75
     0
 76
     0
 77
     0
 78
     0
281
     0
 65
     1
110
0.0
120
0.0
130
0.0
111
1.0
121
0.0
131
0.0
112
0.0
122
1.0
132
0.0
 79
     0
146
0.0
  0
ENDTAB
  0
TABLE
  2
LTYPE
  5
5
330
0
100
AcDbSymbolTable
 70
     8
  0
LTYPE
  5
14
330
5
100
AcDbSymbolTableRecord
100
AcDbLinetypeTableRecord
  2
ByBlock
 70
     0
  3

 72
    65
 73
     0
 40
0.0
  0
LTYPE
  5
15
330
5
100
AcDbSymbolTableRecord
100
AcDbLinetypeTableRecord
  2
ByLayer
 70
     0
  3

 72
    65
 73
     0
 40
0.0
  0
LTYPE
  5
16
330
5
100
AcDbSymbolTableRecord
100
AcDbLinetypeTableRecord
  2
Continuous
 70
     0
  3
Solid line
 72
    65
 73
     0
 40
0.0
  0
LTYPE
  5
3F
330
5
100
AcDbSymbolTableRecord
100
AcDbLinetypeTableRecord
  2
DASHED
 70
     0
  3
Dashed
 72
    65
 73
     2
 40
15.0
 49
7.0
 74
     0
 49
-8.0
 74
     0
  0
LTYPE
  5
40
330
5
100
AcDbSymbolTableRecord
100
AcDbLinetypeTableRecord
  2
DOTTED
 70
     0
  3
Dotted
 72
    65
 73
     2
 40
1.0
 49
0.0
 74
     0
 49
-1.0
 74
     0
  0
LTYPE
  5
41
330
5
100
AcDbSymbolTableRecord
100
AcDbLinetypeTableRecord
  2
DOT_CENTER
 70
     0
  3
Dot_Center
 72
    65
 73
     4
 40
14.0
 49
12.0
 74
     0
 49
-1.0
 74
     0
 49
0.0
 74
     0
 49
-1.0
 74
     0
  0
LTYPE
  5
42
330
5
100
AcDbSymbolTableRecord
100
AcDbLinetypeTableRecord
  2
LONG_DASHED
 70
     0
  3
Long_Dashed
 72
    65
 73
     2
 40
15.0
 49
10.0
 74
     0
 49
-5.0
 74
     0
  0
LTYPE
  5
43
330
5
100
AcDbSymbolTableRecord
100
AcDbLinetypeTableRecord
  2
DASH_CENTER
 70
     0
  3
Dash_Center
 72
    65
 73
     4
 40
14.0
 49
11.0
 74
     0
 49
-1.0
 74
     0
 49
1.0
 74
     0
 49
-1.0
 74
     0
  0
LTYPE
  5
44
330
5
100
AcDbSymbolTableRecord
100
AcDbLinetypeTableRecord
  2
PHANTOM
 70
     0
  3
Phantom
 72
    65
 73
     6
 40
13.0
 49
10.0
 74
     0
 49
-1.0
 74
     0
 49
0.0
 74
     0
 49
-1.0
 74
     0
 49
0.0
 74
     0
 49
-1.0
 74
     0
  0
LTYPE
  5
45
330
5
100
AcDbSymbolTableRecord
100
AcDbLinetypeTableRecord
  2
CENTER_DASH_DASH
 70
     0
  3
Center_Dash_Dash
 72
    65
 73
     6
 40
14.0
 49
9.0
 74
     0
 49
-1.0
 74
     0
 49
1.0
 74
     0
 49
-1.0
 74
     0
 49
1.0
 74
     0
 49
-1.0
 74
     0
  0
ENDTAB
  0
TABLE
  2
LAYER
  5
2
330
0
100
AcDbSymbolTable
 70
     2
  0
LAYER
  5
10
330
2
100
AcDbSymbolTableRecord
100
AcDbLayerTableRecord
  2
0
 70
     0
 62
     7
  6
Continuous
370
    -3
390
F
  0
LAYER
  5
46
330
2
100
AcDbSymbolTableRecord
100
AcDbLayerTableRecord
  2
1
 70
     0
 62
     7
  6
Continuous
370
    -3
390
F
  0
ENDTAB
  0
TABLE
  2
STYLE
  5
3
330
0
100
AcDbSymbolTable
 70
     5
  0
STYLE
  5
11
330
3
100
AcDbSymbolTableRecord
100
AcDbTextStyleTableRecord
  2
Standard
 70
     0
 40
0.0
 41
1.0
 50
0.0
 71
     0
 42
0.2
  3
txt
  4

  0
STYLE
  5
A2
330
3
100
AcDbSymbolTableRecord
100
AcDbTextStyleTableRecord
  2
CONVERTER_11
 70
     0
 40
0.0
 41
0.9
 50
0.0
 71
     0
 42
0.2
  3
txt.shx
  4

  0
STYLE
  5
20B
330
3
100
AcDbSymbolTableRecord
100
AcDbTextStyleTableRecord
  2
CONVERTER_12
 70
     0
 40
0.0
 41
0.81
 50
0.0
 71
     0
 42
0.2
  3
txt.shx
  4

  0
STYLE
  5
211
330
3
100
AcDbSymbolTableRecord
100
AcDbTextStyleTableRecord
  2
CONVERTER_13
 70
     0
 40
0.0
 41
0.855
 50
0.0
 71
     0
 42
0.2
  3
txt.shx
  4

  0
STYLE
  5
214
330
3
100
AcDbSymbolTableRecord
100
AcDbTextStyleTableRecord
  2
CONVERTER_14
 70
     0
 40
0.0
 41
0.72
 50
0.0
 71
     0
 42
0.2
  3
txt.shx
  4

  0
ENDTAB
  0
TABLE
  2
VIEW
  5
6
330
0
100
AcDbSymbolTable
 70
     0
  0
ENDTAB
  0
TABLE
  2
UCS
  5
7
330
0
100
AcDbSymbolTable
 70
     0
  0
ENDTAB
  0
TABLE
  2
APPID
  5
9
330
0
100
AcDbSymbolTable
 70
     1
  0
APPID
  5
12
330
9
100
AcDbSymbolTableRecord
100
AcDbRegAppTableRecord
  2
ACAD
 70
     0
  0
ENDTAB
  0
TABLE
  2
DIMSTYLE
  5
A
330
0
100
AcDbSymbolTable
 70
     4
100
AcDbDimStyleTable
  0
DIMSTYLE
105
27
330
A
100
AcDbSymbolTableRecord
100
AcDbDimStyleTableRecord
  2
Standard
 70
     0
178
     0
340
11
  0
DIMSTYLE
105
EF
102
{ACAD_REACTORS
330
F0
102
}
330
A
100
AcDbSymbolTableRecord
100
AcDbDimStyleTableRecord
  2
ME10_DIM_10
 70
     0
 41
1.75
 42
0.0
 44
0.75
 73
     0
 74
     0
 77
     1
 78
     8
140
1.75
147
0.75
172
     1
173
     1
174
     1
175
     1
176
     2
177
     2
271
     1
178
     3
271
     1
340
A2
  0
DIMSTYLE
105
107
102
{ACAD_REACTORS
330
108
102
}
330
A
100
AcDbSymbolTableRecord
100
AcDbDimStyleTableRecord
  2
ME10_DIM_11
 70
     0
 41
1.75
 42
0.0
 44
0.75
 73
     0
 74
     0
 77
     1
 78
     8
140
1.75
147
0.75
172
     1
173
     1
174
     1
175
     1
176
     2
177
     2
271
     1
178
     3
271
     1
340
A2
  0
DIMSTYLE
105
112
102
{ACAD_REACTORS
330
113
102
}
330
A
100
AcDbSymbolTableRecord
100
AcDbDimStyleTableRecord
  2
ME10_DIM_12
 70
     0
 41
1.75
 42
0.0
 44
0.75
 73
     0
 74
     0
 77
     1
 78
     8
140
1.75
147
0.75
172
     1
173
     1
174
     1
175
     1
176
     2
177
     2
271
     1
178
     3
271
     1
340
A2
  0
ENDTAB
  0
TABLE
  2
BLOCK_RECORD
  5
1
330
0
100
AcDbSymbolTable
 70
    19
  0
BLOCK_RECORD
  5
1F
330
1
100
AcDbSymbolTableRecord
100
AcDbBlockTableRecord
  2
*Model_Space
340
22
  0
BLOCK_RECORD
  5
1B
330
1
100
AcDbSymbolTableRecord
100
AcDbBlockTableRecord
  2
*Paper_Space
340
1E
  0
BLOCK_RECORD
  5
23
330
1
100
AcDbSymbolTableRecord
100
AcDbBlockTableRecord
  2
*Paper_Space0
340
26
  0
BLOCK_RECORD
  5
47
330
1
100
AcDbSymbolTableRecord
100
AcDbBlockTableRecord
  2
3024177_D-MZB_1_5-select__1
340
0
102
{BLKREFS
331
4B
102
}
  0
BLOCK_RECORD
  5
4A
330
1
100
AcDbSymbolTableRecord
100
AcDbBlockTableRecord
  2
Allg1
340
0
102
{BLKREFS
331
7C
102
}
  0
BLOCK_RECORD
  5
4E
330
1
100
AcDbSymbolTableRecord
100
AcDbBlockTableRecord
  2
3024177_D-MZB_1_5-select__2
340
0
102
{BLKREFS
331
52
102
}
  0
BLOCK_RECORD
  5
51
330
1
100
AcDbSymbolTableRecord
100
AcDbBlockTableRecord
  2
Drfsicht1
340
0
102
{BLKREFS
331
7D
102
}
  0
BLOCK_RECORD
  5
55
330
1
100
AcDbSymbolTableRecord
100
AcDbBlockTableRecord
  2
3024177_D-MZB_1_5-select__3
340
0
102
{BLKREFS
331
59
102
}
  0
BLOCK_RECORD
  5
58
330
1
100
AcDbSymbolTableRecord
100
AcDbBlockTableRecord
  2
Rckans1
340
0
102
{BLKREFS
331
7E
102
}
  0
BLOCK_RECORD
  5
5C
330
1
100
AcDbSymbolTableRecord
100
AcDbBlockTableRecord
  2
3024177_D-MZB_1_5-select__4
340
0
102
{BLKREFS
331
60
102
}
  0
BLOCK_RECORD
  5
5F
330
1
100
AcDbSymbolTableRecord
100
AcDbBlockTableRecord
  2
SA_Links1
340
0
102
{BLKREFS
331
7F
102
}
  0
BLOCK_RECORD
  5
63
330
1
100
AcDbSymbolTableRecord
100
AcDbBlockTableRecord
  2
3024177_D-MZB_1_5-select__5
340
0
102
{BLKREFS
331
67
102
}
  0
BLOCK_RECORD
  5
66
330
1
100
AcDbSymbolTableRecord
100
AcDbBlockTableRecord
  2
SA_Rechts1
340
0
102
{BLKREFS
331
80
102
}
  0
BLOCK_RECORD
  5
6A
330
1
100
AcDbSymbolTableRecord
100
AcDbBlockTableRecord
  2
3024177_D-MZB_1_5-select__6
340
0
102
{BLKREFS
331
6E
102
}
  0
BLOCK_RECORD
  5
6D
330
1
100
AcDbSymbolTableRecord
100
AcDbBlockTableRecord
  2
Vordans1
340
0
102
{BLKREFS
331
81
102
}
  0
BLOCK_RECORD
  5
71
330
1
100
AcDbSymbolTableRecord
100
AcDbBlockTableRecord
  2
_rahmen
340
0
102
{BLKREFS
331
78
102
}
  0
BLOCK_RECORD
  5
74
330
1
100
AcDbSymbolTableRecord
100
AcDbBlockTableRecord
  2
_punkt
340
0
102
{BLKREFS
331
79
102
}
  0
BLOCK_RECORD
  5
77
330
1
100
AcDbSymbolTableRecord
100
AcDbBlockTableRecord
  2
A4I_CS
340
0
102
{BLKREFS
331
82
102
}
  0
BLOCK_RECORD
  5
E4
330
1
100
AcDbSymbolTableRecord
100
AcDbBlockTableRecord
  2
*D16
340
0
  0
BLOCK_RECORD
  5
FE
330
1
100
AcDbSymbolTableRecord
100
AcDbBlockTableRecord
  2
*D17
340
0
  0
BLOCK_RECORD
  5
109
330
1
100
AcDbSymbolTableRecord
100
AcDbBlockTableRecord
  2
*D18
340
0
  0
ENDTAB
  0
ENDSEC
  0
SECTION
  2
BLOCKS
  0
BLOCK
  5
20
330
1F
100
AcDbEntity
  8
0
100
AcDbBlockBegin
  2
*Model_Space
 70
     0
 10
0.0
 20
0.0
 30
0.0
  3
*Model_Space
  1

  0
ENDBLK
  5
21
330
1F
100
AcDbEntity
  8
0
100
AcDbBlockEnd
  0
BLOCK
  5
1C
330
1B
100
AcDbEntity
 67
     1
  8
0
100
AcDbBlockBegin
  2
*Paper_Space
 70
     0
 10
0.0
 20
0.0
 30
0.0
  3
*Paper_Space
  1

  0
ENDBLK
  5
1D
330
1B
100
AcDbEntity
 67
     1
  8
0
100
AcDbBlockEnd
  0
BLOCK
  5
24
330
23
100
AcDbEntity
  8
0
100
AcDbBlockBegin
  2
*Paper_Space0
 70
     0
 10
0.0
 20
0.0
 30
0.0
  3
*Paper_Space0
  1

  0
ENDBLK
  5
25
330
23
100
AcDbEntity
  8
0
100
AcDbBlockEnd
  0
BLOCK
  5
48
330
47
100
AcDbEntity
  8
0
100
AcDbBlockBegin
  2
3024177_D-MZB_1_5-select__1
 70
     0
 10
56.14360086987853
 20
186.2410351868861
 30
0.0
  3
3024177_D-MZB_1_5-select__1
  1

  0
LINE
  5
83
330
47
100
AcDbEntity
  8
0
  6
Continuous
 62
     7
100
AcDbLine
 10
58.49195164385178
 20
192.9297848331501
 30
0.0
 11
81.50806301701066
 21
186.2856057846543
 31
0.0
  0
LINE
  5
84
330
47
100
AcDbEntity
  8
0
  6
Continuous
 62
     7
100
AcDbLine
 10
75.55071148594723
 20
209.3673049997288
 30
0.0
 11
85.49859295568187
 21
204.7415190735157
 31
0.0
  0
LINE
  5
85
330
47
100
AcDbEntity
  8
0
  6
Continuous
 62
     2
100
AcDbLine
 10
85.49859295568187
 20
204.7415190735157
 30
0.0
 11
83.49859295568187
 21
203.0094682659468
 31
0.0
  0
LINE
  5
86
330
47
100
AcDbEntity
  8
0
  6
Continuous
 62
     7
100
AcDbLine
 10
73.55071148594723
 20
207.6352541921599
 30
0.0
 11
83.49859295568187
 21
203.0094682659468
 31
0.0
  0
LINE
  5
87
330
47
100
AcDbEntity
  8
0
  6
Continuous
 62
     7
100
AcDbLine
 10
68.44930317491517
 20
211.4173049997287
 30
0.0
 11
75.55071148594723
 21
209.3673049997288
 31
0.0
  0
LINE
  5
88
330
47
100
AcDbEntity
  8
0
  6
Continuous
 62
     7
100
AcDbLine
 10
75.55071148594723
 20
209.3673049997288
 30
0.0
 11
73.55071148594723
 21
207.6352541921599
 31
0.0
  0
LINE
  5
89
330
47
100
AcDbEntity
  8
0
  6
Continuous
 62
     7
100
AcDbLine
 10
66.44930317491517
 20
209.6852541921598
 30
0.0
 11
73.55071148594723
 21
207.6352541921599
 31
0.0
  0
LINE
  5
8A
330
47
100
AcDbEntity
  8
0
  6
Continuous
 62
     7
100
AcDbLine
 10
68.44930317491517
 20
211.4173049997287
 30
0.0
 11
66.44930317491517
 21
209.6852541921598
 31
0.0
  0
LINE
  5
8B
330
47
100
AcDbEntity
  8
0
  6
Continuous
 62
     7
100
AcDbLine
 10
56.50142170518053
 20
210.8028803103645
 30
0.0
 11
66.44930317491517
 21
209.6852541921598
 31
0.0
  0
LINE
  5
8C
330
47
100
AcDbEntity
  8
0
  6
Continuous
 62
     7
100
AcDbLine
 10
58.50142170518053
 20
212.5349311179334
 30
0.0
 11
68.44930317491517
 21
211.4173049997287
 31
0.0
  0
LINE
  5
8D
330
47
100
AcDbEntity
  8
0
  6
Continuous
 62
     2
100
AcDbLine
 10
58.50142170518053
 20
212.5349311179334
 30
0.0
 11
56.50142170518053
 21
210.8028803103645
 31
0.0
  0
LINE
  5
8E
330
47
100
AcDbEntity
  8
0
  6
Continuous
 62
     7
100
AcDbLine
 10
56.14360086987853
 20
200.7957061603135
 30
0.0
 11
56.14360086987855
 21
210.4797400221799
 31
0.0
  0
LINE
  5
8F
330
47
100
AcDbEntity
  8
0
  6
Continuous
 62
     7
100
AcDbLine
 10
57.64812241506067
 20
193.844589425461
 30
0.0
 11
56.14360086987853
 21
200.7957061603135
 31
0.0
  0
LINE
  5
90
330
47
100
AcDbEntity
  8
0
  6
Continuous
 62
     2
100
AcDbLine
 10
85.85641379098386
 20
204.2117908297479
 30
0.0
 11
83.85641379098386
 21
202.479740022179
 31
0.0
  0
LINE
  5
91
330
47
100
AcDbEntity
  8
0
  6
Continuous
 62
     7
100
AcDbLine
 10
83.85641379098386
 20
202.479740022179
 30
0.0
 11
83.85641379098386
 21
192.7957061603125
 31
0.0
  0
LINE
  5
92
330
47
100
AcDbEntity
  8
0
  6
Continuous
 62
     7
100
AcDbLine
 10
83.85641379098386
 20
192.7957061603125
 30
0.0
 11
82.35189224580176
 21
186.7132253445725
 31
0.0
  0
LINE
  5
93
330
47
100
AcDbEntity
  8
0
  6
Continuous
 62
     7
100
AcDbLine
 10
85.85641379098386
 20
204.2117908297479
 30
0.0
 11
85.85641379098386
 21
194.5277569678814
 31
0.0
  0
LINE
  5
94
330
47
100
AcDbEntity
  8
0
  6
Continuous
 62
     7
100
AcDbLine
 10
85.85641379098386
 20
194.5277569678814
 30
0.0
 11
84.35189224580176
 21
188.4452761521414
 31
0.0
  0
LINE
  5
95
330
47
100
AcDbEntity
  8
0
  6
Continuous
 62
     2
100
AcDbLine
 10
84.35189224580176
 20
188.4452761521414
 30
0.0
 11
82.35189224580176
 21
186.7132253445725
 31
0.0
  0
LINE
  5
96
330
47
100
AcDbEntity
  8
0
  6
Continuous
 62
     7
100
AcDbLine
 10
84.16271668771863
 20
188.1277530499891
 30
0.0
 11
82.16271668771863
 21
186.3957022424202
 31
0.0
  0
LINE
  5
97
330
47
100
AcDbEntity
  8
0
  6
Continuous
 62
     7
100
AcDbLine
 10
85.85641379098386
 20
194.5277569678814
 30
0.0
 11
83.85641379098386
 21
192.7957061603125
 31
0.0
  0
LINE
  5
98
330
47
100
AcDbEntity
  8
0
  6
Continuous
 62
     7
100
AcDbLine
 10
58.24928673641678
 20
212.464755302758
 30
0.0
 11
56.24928673641679
 21
210.7327044951892
 31
0.0
  0
SPLINE
  5
99
330
47
100
AcDbEntity
  8
0
  6
Continuous
 62
     7
100
AcDbSpline
210
0.0
220
0.0
230
1.0
 70
     8
 71
     3
 72
    11
 73
     7
 74
     5
 42
0.000000001
 43
0.0000000001
 44
0.00000001
 40
0.0
 40
0.0
 40
0.0
 40
0.0
 40
0.1578131132520857
 40
0.3273423336345704
 40
0.5009811384209373
 40
0.6697289587363359
 40
0.6697289587363359
 40
0.6697289587363359
 40
0.6697289587363359
 10
85.85641379098386
 20
204.2117908297479
 30
0.0
 10
85.85086187682118
 20
204.2645461983691
 30
0.0
 10
85.83934585746812
 20
204.3739735120505
 30
0.0
 10
85.75943810568539
 20
204.5241375492931
 30
0.0
 10
85.64731231346904
 20
204.6559699167984
 30
0.0
 10
85.54769171845295
 20
204.7132755619043
 30
0.0
 10
85.49859295568187
 20
204.7415190735157
 30
0.0
 11
85.85641379098386
 21
204.2117908297479
 31
0.0
 11
85.83029931978969
 21
204.3674282725844
 31
0.0
 11
85.75510806317612
 21
204.5193704739712
 31
0.0
 11
85.63990711547596
 21
204.6492903612833
 31
0.0
 11
85.49859295568187
 21
204.7415190735157
 31
0.0
  0
SPLINE
  5
9A
330
47
100
AcDbEntity
  8
0
  6
Continuous
 62
     7
100
AcDbSpline
210
0.0
220
0.0
230
1.0
 70
     8
 71
     3
 72
     9
 73
     5
 74
     3
 42
0.000000001
 43
0.0000000001
 44
0.00000001
 40
0.0
 40
0.0
 40
0.0
 40
0.0
 40
0.1387313167338509
 40
0.2675074211037124
 40
0.2675074211037124
 40
0.2675074211037124
 40
0.2675074211037124
 10
56.50142170518053
 20
210.8028803103645
 30
0.0
 10
56.4539246239668
 20
210.8043833442546
 30
0.0
 10
56.36233880526593
 20
210.8072815369795
 30
0.0
 10
56.28602408008916
 20
210.7569390207155
 30
0.0
 10
56.24928673641679
 20
210.7327044951892
 30
0.0
 11
56.50142170518053
 21
210.8028803103645
 31
0.0
 11
56.36303767783623
 21
210.7930701221315
 31
0.0
 11
56.24928673641679
 21
210.7327044951892
 31
0.0
  0
SPLINE
  5
9B
330
47
100
AcDbEntity
  8
0
  6
Continuous
 62
     7
100
AcDbSpline
210
0.0
220
0.0
230
1.0
 70
     8
 71
     3
 72
    13
 73
     9
 74
     7
 42
0.000000001
 43
0.0000000001
 44
0.00000001
 40
0.0
 40
0.0
 40
0.0
 40
0.0
 40
0.2111805205534202
 40
0.4305466199807838
 40
0.6538217967028914
 40
0.8761878896442648
 40
1.092950552460694
 40
1.300207744223455
 40
1.300207744223455
 40
1.300207744223455
 40
1.300207744223455
 10
57.64812241506067
 20
193.844589425461
 30
0.0
 10
57.66706622295164
 20
193.7765830527796
 30
0.0
 10
57.70568813470079
 20
193.6379343134734
 30
0.0
 10
57.81179529128468
 20
193.4455729931989
 30
0.0
 10
57.94787613022484
 20
193.2695131683444
 30
0.0
 10
58.11170539476696
 20
193.1202438541148
 30
0.0
 10
58.29312646419454
 20
193.0006391386315
 30
0.0
 10
58.42667452064444
 20
192.9530473002721
 30
0.0
 10
58.49195164385178
 20
192.9297848331501
 30
0.0
 11
57.64812241506067
 21
193.844589425461
 31
0.0
 11
57.71247221359032
 21
193.6434518706174
 31
0.0
 11
57.81576418162665
 21
193.4499260180158
 31
0.0
 11
57.95283821065058
 21
193.2736804056301
 31
0.0
 11
58.11684591602825
 21
193.1235199824178
 31
0.0
 11
58.29959375677081
 21
193.0069469172211
 31
0.0
 11
58.49195164385178
 21
192.9297848331501
 31
0.0
  0
SPLINE
  5
9C
330
47
100
AcDbEntity
  8
0
  6
Continuous
 62
     7
100
AcDbSpline
210
0.0
220
0.0
230
1.0
 70
     8
 71
     3
 72
    11
 73
     7
 74
     5
 42
0.000000001
 43
0.0000000001
 44
0.00000001
 40
0.0
 40
0.0
 40
0.0
 40
0.0
 40
0.1578131132521138
 40
0.3273423336345984
 40
0.5009811384209865
 40
0.6697289587363695
 40
0.6697289587363695
 40
0.6697289587363695
 40
0.6697289587363695
 10
83.85641379098386
 20
202.479740022179
 30
0.0
 10
83.85086187682118
 20
202.5324953908002
 30
0.0
 10
83.83934585746817
 20
202.6419227044817
 30
0.0
 10
83.75943810568533
 20
202.7920867417241
 30
0.0
 10
83.64731231346909
 20
202.9239191092296
 30
0.0
 10
83.54769171845294
 20
202.9812247543354
 30
0.0
 10
83.49859295568187
 20
203.0094682659468
 30
0.0
 11
83.85641379098386
 21
202.479740022179
 31
0.0
 11
83.83029931978969
 21
202.6353774650155
 31
0.0
 11
83.75510806317612
 21
202.7873196664023
 31
0.0
 11
83.63990711547596
 21
202.9172395537144
 31
0.0
 11
83.49859295568187
 21
203.0094682659468
 31
0.0
  0
SPLINE
  5
9D
330
47
100
AcDbEntity
  8
0
  6
Continuous
 62
     7
100
AcDbSpline
210
0.0
220
0.0
230
1.0
 70
     8
 71
     3
 72
     9
 73
     5
 74
     3
 42
0.000000001
 43
0.0000000001
 44
0.00000001
 40
0.0
 40
0.0
 40
0.0
 40
0.0
 40
0.1831523758959752
 40
0.3740797624174476
 40
0.3740797624174476
 40
0.3740797624174476
 40
0.3740797624174476
 10
82.16271668771863
 20
186.3957022424202
 30
0.0
 10
82.20578486840225
 20
186.4402039827259
 30
0.0
 10
82.29374950331845
 20
186.531096620344
 30
0.0
 10
82.33224463860303
 20
186.6516803480666
 30
0.0
 10
82.35189224580176
 20
186.7132253445725
 30
0.0
 11
82.16271668771863
 21
186.3957022424202
 31
0.0
 11
82.2800626013419
 21
186.5363248932174
 31
0.0
 11
82.35189224580176
 21
186.7132253445725
 31
0.0
  0
SPLINE
  5
9E
330
47
100
AcDbEntity
  8
0
  6
Continuous
 62
     7
100
AcDbSpline
210
0.0
220
0.0
230
1.0
 70
     8
 71
     3
 72
    11
 73
     7
 74
     5
 42
0.000000001
 43
0.0000000001
 44
0.00000001
 40
0.0
 40
0.0
 40
0.0
 40
0.0
 40
0.1871411907843963
 40
0.3630362754382518
 40
0.5295381944253339
 40
0.6906435563658044
 40
0.6906435563658044
 40
0.6906435563658044
 40
0.6906435563658044
 10
81.50806301701066
 20
186.2856057846543
 30
0.0
 10
81.56912363164166
 20
186.271524983994
 30
0.0
 10
81.68757547248141
 20
186.2442095719647
 30
0.0
 10
81.86564002552622
 20
186.2531565569368
 30
0.0
 10
82.03011450201737
 20
186.2990857797986
 30
0.0
 10
82.11900404353594
 20
186.3638523764033
 30
0.0
 10
82.16271668771863
 20
186.3957022424202
 30
0.0
 11
81.50806301701066
 21
186.2856057846543
 31
0.0
 11
81.69220789929477
 21
186.2522518080929
 31
0.0
 11
81.86793087259727
 21
186.2600311564833
 31
0.0
 11
82.02719509322702
 21
186.3085883186772
 31
0.0
 11
82.16271668771863
 21
186.3957022424202
 31
0.0
  0
SPLINE
  5
9F
330
47
100
AcDbEntity
  8
0
  6
Continuous
 62
     7
100
AcDbSpline
210
0.0
220
0.0
230
1.0
 70
     8
 71
     3
 72
     9
 73
     5
 74
     3
 42
0.000000001
 43
0.0000000001
 44
0.00000001
 40
0.0
 40
0.0
 40
0.0
 40
0.0
 40
0.1831523758959315
 40
0.3740797624174567
 40
0.3740797624174567
 40
0.3740797624174567
 40
0.3740797624174567
 10
84.16271668771863
 20
188.1277530499891
 30
0.0
 10
84.20578486840226
 20
188.1722547902947
 30
0.0
 10
84.29374950331851
 20
188.2631474279129
 30
0.0
 10
84.332244638603
 20
188.3837311556354
 30
0.0
 10
84.35189224580176
 20
188.4452761521414
 30
0.0
 11
84.16271668771863
 21
188.1277530499891
 31
0.0
 11
84.2800626013419
 21
188.2683757007862
 31
0.0
 11
84.35189224580176
 21
188.4452761521414
 31
0.0
  0
SPLINE
  5
A0
330
47
100
AcDbEntity
  8
0
  6
Continuous
 62
     7
100
AcDbSpline
210
0.0
220
0.0
230
1.0
 70
     8
 71
     3
 72
     9
 73
     5
 74
     3
 42
0.000000001
 43
0.0000000001
 44
0.00000001
 40
0.0
 40
0.0
 40
0.0
 40
0.0
 40
0.1387313167338732
 40
0.2675074211037479
 40
0.2675074211037479
 40
0.2675074211037479
 40
0.2675074211037479
 10
58.50142170518053
 20
212.5349311179334
 30
0.0
 10
58.45392462396679
 20
212.5364341518235
 30
0.0
 10
58.3623388052659
 20
212.5393323445483
 30
0.0
 10
58.28602408008915
 20
212.4889898282843
 30
0.0
 10
58.24928673641678
 20
212.464755302758
 30
0.0
 11
58.50142170518053
 21
212.5349311179334
 31
0.0
 11
58.36303767783622
 21
212.5251209297003
 31
0.0
 11
58.24928673641678
 21
212.464755302758
 31
0.0
  0
SPLINE
  5
A1
330
47
100
AcDbEntity
  8
0
  6
Continuous
 62
     7
100
AcDbSpline
210
0.0
220
0.0
230
1.0
 70
     8
 71
     3
 72
     9
 73
     5
 74
     3
 42
0.000000001
 43
0.0000000001
 44
0.00000001
 40
0.0
 40
0.0
 40
0.0
 40
0.0
 40
0.1347351597551463
 40
0.2806984683898787
 40
0.2806984683898787
 40
0.2806984683898787
 40
0.2806984683898787
 10
56.24928673641679
 20
210.7327044951892
 30
0.0
 10
56.21889425271565
 20
210.6980030288991
 30
0.0
 10
56.15557654564205
 20
210.6257082414752
 30
0.0
 10
56.14769780726127
 20
210.5296765438686
 30
0.0
 10
56.14360086987855
 20
210.4797400221799
 30
0.0
 11
56.24928673641679
 21
210.7327044951892
 31
0.0
 11
56.1708824105996
 21
210.6231311154552
 31
0.0
 11
56.14360086987855
 21
210.4797400221799
 31
0.0
  0
ENDBLK
  5
49
330
47
100
AcDbEntity
  8
0
100
AcDbBlockEnd
  0
BLOCK
  5
4C
330
4A
100
AcDbEntity
  8
0
100
AcDbBlockBegin
  2
Allg1
 70
     0
 10
71.00000767679703
 20
200.000000079728
 30
0.0
  3
Allg1
  1

  0
INSERT
  5
4B
330
4A
100
AcDbEntity
  8
0
100
AcDbBlockReference
  2
3024177_D-MZB_1_5-select__1
 10
56.14360086987853
 20
186.2410351868861
 30
0.0
  0
MTEXT
  5
A3
330
4A
100
AcDbEntity
  8
1
 62
     6
100
AcDbMText
 10
71.00000767679697
 20
183.107692171217
 30
0.0
 40
2.5
 41
0.0
 71
     2
 72
     1
  1
 
  7
CONVERTER_11
 73
     1
 44
1.32052821128451
  0
ENDBLK
  5
4D
330
4A
100
AcDbEntity
  8
0
100
AcDbBlockEnd
  0
BLOCK
  5
4F
330
4E
100
AcDbEntity
  8
0
100
AcDbBlockBegin
  2
3024177_D-MZB_1_5-select__2
 70
     0
 10
-11.50000079989379
 20
204.000000046316
 30
0.0
  3
3024177_D-MZB_1_5-select__2
  1

  0
LINE
  5
A4
330
4E
100
AcDbEntity
  8
0
  6
Continuous
 62
     7
100
AcDbLine
 10
-11.08682488872727
 20
208.000000046316
 30
0.0
 11
0.3999992001083
 21
208.000000046316
 31
0.0
  0
LINE
  5
A5
330
4E
100
AcDbEntity
  8
0
  6
Continuous
 62
     7
100
AcDbLine
 10
0.3999992001083
 20
204.000000046316
 30
0.0
 11
8.59999920010792
 21
204.000000046316
 31
0.0
  0
LINE
  5
A6
330
4E
100
AcDbEntity
  8
0
  6
Continuous
 62
     7
100
AcDbLine
 10
8.59999920010792
 20
208.000000046316
 30
0.0
 11
8.59999920010792
 21
204.000000046316
 31
0.0
  0
LINE
  5
A7
330
4E
100
AcDbEntity
  8
0
  6
Continuous
 62
     2
100
AcDbLine
 10
20.08682328894349
 20
208.000000046316
 30
0.0
 11
20.08682328894349
 21
204.000000046316
 31
0.0
  0
LINE
  5
A8
330
4E
100
AcDbEntity
  8
0
  6
Continuous
 62
     7
100
AcDbLine
 10
20.49999920011
 20
208.000000046316
 30
0.0
 11
20.49999920011
 21
204.000000046316
 31
0.0
  0
LINE
  5
A9
330
4E
100
AcDbEntity
  8
0
  6
Continuous
 62
     7
100
AcDbLine
 10
8.59999920010792
 20
204.000000046316
 30
0.0
 11
20.08682328894349
 21
204.000000046316
 31
0.0
  0
LINE
  5
AA
330
4E
100
AcDbEntity
  8
0
  6
Continuous
 62
     7
100
AcDbLine
 10
20.49999920011
 20
204.000000046316
 30
0.0
 11
20.08682328894349
 21
204.000000046316
 31
0.0
  0
LINE
  5
AB
330
4E
100
AcDbEntity
  8
0
  6
Continuous
 62
     7
100
AcDbLine
 10
-11.08682488872727
 20
204.000000046316
 30
0.0
 11
0.3999992001083
 21
204.000000046316
 31
0.0
  0
LINE
  5
AC
330
4E
100
AcDbEntity
  8
0
  6
Continuous
 62
     7
100
AcDbLine
 10
0.3999992001083
 20
208.000000046316
 30
0.0
 11
0.3999992001083
 21
204.000000046316
 31
0.0
  0
LINE
  5
AD
330
4E
100
AcDbEntity
  8
0
  6
Continuous
 62
     7
100
AcDbLine
 10
8.59999920010792
 20
208.000000046316
 30
0.0
 11
20.08682328894349
 21
208.000000046316
 31
0.0
  0
LINE
  5
AE
330
4E
100
AcDbEntity
  8
0
  6
Continuous
 62
     7
100
AcDbLine
 10
20.49999920011
 20
208.000000046316
 30
0.0
 11
20.08682328894349
 21
208.000000046316
 31
0.0
  0
LINE
  5
AF
330
4E
100
AcDbEntity
  8
0
  6
Continuous
 62
     7
100
AcDbLine
 10
-11.08682488872727
 20
208.000000046316
 30
0.0
 11
-11.50000079989379
 21
208.000000046316
 31
0.0
  0
LINE
  5
B0
330
4E
100
AcDbEntity
  8
0
  6
Continuous
 62
     7
100
AcDbLine
 10
0.3999992001083
 20
208.000000046316
 30
0.0
 11
8.59999920010792
 21
208.000000046316
 31
0.0
  0
LINE
  5
B1
330
4E
100
AcDbEntity
  8
0
  6
Continuous
 62
     7
100
AcDbLine
 10
-11.50000079989379
 20
208.000000046316
 30
0.0
 11
-11.50000079989379
 21
204.000000046316
 31
0.0
  0
LINE
  5
B2
330
4E
100
AcDbEntity
  8
0
  6
Continuous
 62
     2
100
AcDbLine
 10
-11.08682488872727
 20
208.000000046316
 30
0.0
 11
-11.08682488872727
 21
204.000000046316
 31
0.0
  0
LINE
  5
B3
330
4E
100
AcDbEntity
  8
0
  6
Continuous
 62
     7
100
AcDbLine
 10
-11.08682488872727
 20
204.000000046316
 30
0.0
 11
-11.50000079989379
 21
204.000000046316
 31
0.0
  0
ENDBLK
  5
50
330
4E
100
AcDbEntity
  8
0
100
AcDbBlockEnd
  0
BLOCK
  5
53
330
51
100
AcDbEntity
  8
0
100
AcDbBlockBegin
  2
Drfsicht1
 70
     0
 10
4.49999960005402
 20
206.000000046321
 30
0.0
  3
Drfsicht1
  1

  0
INSERT
  5
52
330
51
100
AcDbEntity
  8
0
100
AcDbBlockReference
  2
3024177_D-MZB_1_5-select__2
 10
-11.50000079989379
 20
204.000000046316
 30
0.0
  0
MTEXT
  5
B4
330
51
100
AcDbEntity
  8
1
 62
     6
100
AcDbMText
 10
4.49999960005402
 20
201.4999980926467
 30
0.0
 40
2.5
 41
0.0
 71
     2
 72
     1
  1
 
  7
CONVERTER_11
 73
     1
 44
1.32052821128451
  0
ENDBLK
  5
54
330
51
100
AcDbEntity
  8
0
100
AcDbBlockEnd
  0
BLOCK
  5
56
330
55
100
AcDbEntity
  8
0
100
AcDbBlockBegin
  2
3024177_D-MZB_1_5-select__3
 70
     0
 10
44.50000870724256
 20
223.0000038605681
 30
0.0
  3
3024177_D-MZB_1_5-select__3
  1

  0
LINE
  5
B5
330
55
100
AcDbEntity
  8
0
  6
Continuous
 62
     7
100
AcDbLine
 10
76.08683279607983
 20
242.9745668510543
 30
0.0
 11
64.60000870724427
 21
245.0000038605682
 31
0.0
  0
LINE
  5
B6
330
55
100
AcDbEntity
  8
0
  6
Continuous
 62
     7
100
AcDbLine
 10
44.50000870724256
 20
242.4821629745482
 30
0.0
 11
44.50000870724256
 21
231.3000038605681
 31
0.0
  0
LINE
  5
B7
330
55
100
AcDbEntity
  8
0
  6
Continuous
 62
     7
100
AcDbLine
 10
64.60000870724427
 20
245.0000038605682
 30
0.0
 11
56.40000870724465
 21
245.0000038605682
 31
0.0
  0
LINE
  5
B8
330
55
100
AcDbEntity
  8
0
  6
Continuous
 62
     7
100
AcDbLine
 10
73.78836680423613
 20
223.0000038605682
 30
0.0
 11
47.21165061025278
 21
223.0000038605682
 31
0.0
  0
LINE
  5
B9
330
55
100
AcDbEntity
  8
0
  6
Continuous
 62
     7
100
AcDbLine
 10
44.50000870724256
 20
231.3000038605681
 30
0.0
 11
46.23728054546752
 21
223.7750528062243
 31
0.0
  0
LINE
  5
BA
330
55
100
AcDbEntity
  8
0
  6
Continuous
 62
     7
100
AcDbLine
 10
76.50000870724638
 20
231.3000038605681
 30
0.0
 11
76.50000870724635
 21
242.4821629745482
 31
0.0
  0
LINE
  5
BB
330
55
100
AcDbEntity
  8
0
  6
Continuous
 62
     7
100
AcDbLine
 10
74.76273686902137
 20
223.7750528062243
 30
0.0
 11
76.50000870724638
 21
231.3000038605681
 31
0.0
  0
LINE
  5
BC
330
55
100
AcDbEntity
  8
0
  6
Continuous
 62
     7
100
AcDbLine
 10
56.40000870724465
 20
245.0000038605682
 30
0.0
 11
44.91318461840909
 21
242.9745668510543
 31
0.0
  0
ARC
  5
BD
330
55
100
AcDbEntity
  8
0
  6
Continuous
 62
     7
100
AcDbCircle
 10
47.21165061025278
 20
224.0000038605682
 30
0.0
 40
1.000000000000035
100
AcDbArc
 50
193.0000000000018
 51
270.0
  0
ARC
  5
BE
330
55
100
AcDbEntity
  8
0
  6
Continuous
 62
     7
100
AcDbCircle
 10
73.78836680423613
 20
224.0000038605682
 30
0.0
 40
1.0
100
AcDbArc
 50
270.0
 51
346.9999999999978
  0
ARC
  5
BF
330
55
100
AcDbEntity
  8
0
  6
Continuous
 62
     7
100
AcDbCircle
 10
76.00000870724635
 20
242.4821629745482
 30
0.0
 40
0.5
100
AcDbArc
 50
0.0
 51
79.9999999999982
  0
ARC
  5
C0
330
55
100
AcDbEntity
  8
0
  6
Continuous
 62
     7
100
AcDbCircle
 10
45.00000870724256
 20
242.4821629745482
 30
0.0
 40
0.499999999999999
100
AcDbArc
 50
100.0000000000002
 51
180.0
  0
ENDBLK
  5
57
330
55
100
AcDbEntity
  8
0
100
AcDbBlockEnd
  0
BLOCK
  5
5A
330
58
100
AcDbEntity
  8
0
100
AcDbBlockBegin
  2
Rckans1
 70
     0
 10
60.50000830729854
 20
234.000003889894
 30
0.0
  3
Rckans1
  1

  0
INSERT
  5
59
330
58
100
AcDbEntity
  8
0
100
AcDbBlockReference
  2
3024177_D-MZB_1_5-select__3
 10
44.50000870724256
 20
223.0000038605681
 30
0.0
  0
MTEXT
  5
C1
330
58
100
AcDbEntity
  8
1
 62
     6
100
AcDbMText
 10
60.50000830729852
 20
220.5000019071213
 30
0.0
 40
2.5
 41
0.0
 71
     2
 72
     1
  1
 
  7
CONVERTER_11
 73
     1
 44
1.32052821128451
  0
ENDBLK
  5
5B
330
58
100
AcDbEntity
  8
0
100
AcDbBlockEnd
  0
BLOCK
  5
5D
330
5C
100
AcDbEntity
  8
0
100
AcDbBlockBegin
  2
3024177_D-MZB_1_5-select__4
 70
     0
 10
30.50000390736022
 20
223.0000038605681
 30
0.0
  3
3024177_D-MZB_1_5-select__4
  1

  0
LINE
  5
C2
330
5C
100
AcDbEntity
  8
0
  6
Continuous
 62
     7
100
AcDbLine
 10
30.50000390736022
 20
231.3000038605681
 30
0.0
 11
30.50000390736022
 21
242.4821629745482
 31
0.0
  0
LINE
  5
C3
330
5C
100
AcDbEntity
  8
0
  6
Continuous
 62
     7
100
AcDbLine
 10
30.50000390736022
 20
242.9745668510543
 30
0.0
 11
30.50000390736022
 21
245.0000038605681
 31
0.0
  0
LINE
  5
C4
330
5C
100
AcDbEntity
  8
0
  6
Continuous
 62
     7
100
AcDbLine
 10
34.50000390736022
 20
242.9745668510543
 30
0.0
 11
34.50000390736022
 21
245.0000038605681
 31
0.0
  0
LINE
  5
C5
330
5C
100
AcDbEntity
  8
0
  6
Continuous
 62
     7
100
AcDbLine
 10
30.50000390736022
 20
245.0000038605681
 30
0.0
 11
34.50000390736022
 21
245.0000038605681
 31
0.0
  0
LINE
  5
C6
330
5C
100
AcDbEntity
  8
0
  6
Continuous
 62
     7
100
AcDbLine
 10
30.50000390736022
 20
242.9745668510543
 30
0.0
 11
30.50000390736022
 21
242.4821629745482
 31
0.0
  0
LINE
  5
C7
330
5C
100
AcDbEntity
  8
0
  6
Continuous
 62
     2
100
AcDbLine
 10
30.50000390736022
 20
242.4821629745482
 30
0.0
 11
34.50000390736022
 21
242.4821629745482
 31
0.0
  0
LINE
  5
C8
330
5C
100
AcDbEntity
  8
0
  6
Continuous
 62
     7
100
AcDbLine
 10
30.50000390736022
 20
231.3000038605681
 30
0.0
 11
34.50000390736022
 21
231.3000038605681
 31
0.0
  0
LINE
  5
C9
330
5C
100
AcDbEntity
  8
0
  6
Continuous
 62
     2
100
AcDbLine
 10
30.50000390736022
 20
242.9745668510543
 30
0.0
 11
34.50000390736022
 21
242.9745668510543
 31
0.0
  0
LINE
  5
CA
330
5C
100
AcDbEntity
  8
0
  6
Continuous
 62
     7
100
AcDbLine
 10
30.50000390736022
 20
223.7750528062242
 30
0.0
 11
30.50000390736022
 21
223.0000038605681
 31
0.0
  0
LINE
  5
CB
330
5C
100
AcDbEntity
  8
0
  6
Continuous
 62
     7
100
AcDbLine
 10
30.50000390736022
 20
223.7750528062242
 30
0.0
 11
30.50000390736022
 21
231.3000038605681
 31
0.0
  0
LINE
  5
CC
330
5C
100
AcDbEntity
  8
0
  6
Continuous
 62
     7
100
AcDbLine
 10
34.50000390736022
 20
223.7750528062242
 30
0.0
 11
34.50000390736022
 21
231.3000038605681
 31
0.0
  0
LINE
  5
CD
330
5C
100
AcDbEntity
  8
0
  6
Continuous
 62
     7
100
AcDbLine
 10
34.50000390736022
 20
231.3000038605681
 30
0.0
 11
34.50000390736022
 21
242.4821629745482
 31
0.0
  0
LINE
  5
CE
330
5C
100
AcDbEntity
  8
0
  6
Continuous
 62
     7
100
AcDbLine
 10
34.50000390736022
 20
242.9745668510543
 30
0.0
 11
34.50000390736022
 21
242.4821629745482
 31
0.0
  0
LINE
  5
CF
330
5C
100
AcDbEntity
  8
0
  6
Continuous
 62
     7
100
AcDbLine
 10
30.50000390736022
 20
223.0000038605681
 30
0.0
 11
34.50000390736022
 21
223.0000038605681
 31
0.0
  0
LINE
  5
D0
330
5C
100
AcDbEntity
  8
0
  6
Continuous
 62
     2
100
AcDbLine
 10
30.50000390736022
 20
223.7750528062242
 30
0.0
 11
34.50000390736022
 21
223.7750528062242
 31
0.0
  0
LINE
  5
D1
330
5C
100
AcDbEntity
  8
0
  6
Continuous
 62
     7
100
AcDbLine
 10
34.50000390736022
 20
223.7750528062242
 30
0.0
 11
34.50000390736022
 21
223.0000038605681
 31
0.0
  0
ENDBLK
  5
5E
330
5C
100
AcDbEntity
  8
0
100
AcDbBlockEnd
  0
BLOCK
  5
61
330
5F
100
AcDbEntity
  8
0
100
AcDbBlockBegin
  2
SA_Links1
 70
     0
 10
32.50000390735522
 20
234.0000038898939
 30
0.0
  3
SA_Links1
  1

  0
INSERT
  5
60
330
5F
100
AcDbEntity
  8
0
100
AcDbBlockReference
  2
3024177_D-MZB_1_5-select__4
 10
30.50000390736022
 20
223.0000038605681
 30
0.0
  0
MTEXT
  5
D2
330
5F
100
AcDbEntity
  8
1
 62
     6
100
AcDbMText
 10
32.50000390735522
 20
220.5000019071213
 30
0.0
 40
2.5
 41
0.0
 71
     2
 72
     1
  1
 
  7
CONVERTER_11
 73
     1
 44
1.32052821128451
  0
ENDBLK
  5
62
330
5F
100
AcDbEntity
  8
0
100
AcDbBlockEnd
  0
BLOCK
  5
64
330
63
100
AcDbEntity
  8
0
100
AcDbBlockBegin
  2
3024177_D-MZB_1_5-select__5
 70
     0
 10
-30.50000390736025
 20
223.0000038605681
 30
0.0
  3
3024177_D-MZB_1_5-select__5
  1

  0
LINE
  5
D3
330
63
100
AcDbEntity
  8
0
  6
Continuous
 62
     7
100
AcDbLine
 10
-26.50000390736025
 20
242.4821629745482
 30
0.0
 11
-26.50000390736025
 21
231.3000038605681
 31
0.0
  0
LINE
  5
D4
330
63
100
AcDbEntity
  8
0
  6
Continuous
 62
     7
100
AcDbLine
 10
-30.50000390736025
 20
231.3000038605681
 30
0.0
 11
-30.50000390736025
 21
223.7750528062242
 31
0.0
  0
LINE
  5
D5
330
63
100
AcDbEntity
  8
0
  6
Continuous
 62
     7
100
AcDbLine
 10
-30.50000390736025
 20
223.0000038605681
 30
0.0
 11
-30.50000390736025
 21
223.7750528062242
 31
0.0
  0
LINE
  5
D6
330
63
100
AcDbEntity
  8
0
  6
Continuous
 62
     7
100
AcDbLine
 10
-26.50000390736025
 20
231.3000038605681
 30
0.0
 11
-30.50000390736025
 21
231.3000038605681
 31
0.0
  0
LINE
  5
D7
330
63
100
AcDbEntity
  8
0
  6
Continuous
 62
     7
100
AcDbLine
 10
-26.50000390736025
 20
223.0000038605681
 30
0.0
 11
-30.50000390736025
 21
223.0000038605681
 31
0.0
  0
LINE
  5
D8
330
63
100
AcDbEntity
  8
0
  6
Continuous
 62
     2
100
AcDbLine
 10
-26.50000390736025
 20
223.7750528062242
 30
0.0
 11
-30.50000390736025
 21
223.7750528062242
 31
0.0
  0
LINE
  5
D9
330
63
100
AcDbEntity
  8
0
  6
Continuous
 62
     7
100
AcDbLine
 10
-26.50000390736025
 20
231.3000038605681
 30
0.0
 11
-26.50000390736025
 21
223.7750528062242
 31
0.0
  0
LINE
  5
DA
330
63
100
AcDbEntity
  8
0
  6
Continuous
 62
     7
100
AcDbLine
 10
-26.50000390736025
 20
223.0000038605681
 30
0.0
 11
-26.50000390736025
 21
223.7750528062242
 31
0.0
  0
LINE
  5
DB
330
63
100
AcDbEntity
  8
0
  6
Continuous
 62
     2
100
AcDbLine
 10
-26.50000390736025
 20
242.4821629745482
 30
0.0
 11
-30.50000390736025
 21
242.4821629745482
 31
0.0
  0
LINE
  5
DC
330
63
100
AcDbEntity
  8
0
  6
Continuous
 62
     7
100
AcDbLine
 10
-30.50000390736025
 20
242.4821629745482
 30
0.0
 11
-30.50000390736025
 21
231.3000038605681
 31
0.0
  0
LINE
  5
DD
330
63
100
AcDbEntity
  8
0
  6
Continuous
 62
     7
100
AcDbLine
 10
-30.50000390736025
 20
242.4821629745482
 30
0.0
 11
-30.50000390736025
 21
242.9745668510543
 31
0.0
  0
LINE
  5
DE
330
63
100
AcDbEntity
  8
0
  6
Continuous
 62
     7
100
AcDbLine
 10
-26.50000390736025
 20
245.0000038605681
 30
0.0
 11
-26.50000390736025
 21
242.9745668510543
 31
0.0
  0
LINE
  5
DF
330
63
100
AcDbEntity
  8
0
  6
Continuous
 62
     7
100
AcDbLine
 10
-26.50000390736025
 20
242.4821629745482
 30
0.0
 11
-26.50000390736025
 21
242.9745668510543
 31
0.0
  0
LINE
  5
E0
330
63
100
AcDbEntity
  8
0
  6
Continuous
 62
     7
100
AcDbLine
 10
-26.50000390736025
 20
245.0000038605681
 30
0.0
 11
-30.50000390736025
 21
245.0000038605681
 31
0.0
  0
LINE
  5
E1
330
63
100
AcDbEntity
  8
0
  6
Continuous
 62
     2
100
AcDbLine
 10
-26.50000390736025
 20
242.9745668510543
 30
0.0
 11
-30.50000390736025
 21
242.9745668510543
 31
0.0
  0
LINE
  5
E2
330
63
100
AcDbEntity
  8
0
  6
Continuous
 62
     7
100
AcDbLine
 10
-30.50000390736025
 20
245.0000038605681
 30
0.0
 11
-30.50000390736025
 21
242.9745668510543
 31
0.0
  0
ENDBLK
  5
65
330
63
100
AcDbEntity
  8
0
100
AcDbBlockEnd
  0
BLOCK
  5
68
330
66
100
AcDbEntity
  8
0
100
AcDbBlockBegin
  2
SA_Rechts1
 70
     0
 10
-28.50000390735525
 20
234.0000038898939
 30
0.0
  3
SA_Rechts1
  1

  0
INSERT
  5
67
330
66
100
AcDbEntity
  8
0
100
AcDbBlockReference
  2
3024177_D-MZB_1_5-select__5
 10
-30.50000390736025
 20
223.0000038605681
 30
0.0
  0
MTEXT
  5
E3
330
66
100
AcDbEntity
  8
1
 62
     6
100
AcDbMText
 10
-28.50000390735523
 20
220.5000019071213
 30
0.0
 40
2.5
 41
0.0
 71
     2
 72
     1
  1
 
  7
CONVERTER_11
 73
     1
 44
1.32052821128451
  0
DIMENSION
  5
F0
330
66
100
AcDbEntity
  8
1
100
AcDbDimension
  2
*D16
 10
-30.50000390736025
 20
218.0000038605681
 30
0.0
 11
-28.50000390735524
 21
219.6250038605681
 31
0.0
 70
    33
  1
<>
 71
     5
 42
-1.0
 53
0.00013888888889
  3
ME10_DIM_10
100
AcDbAlignedDimension
 13
-26.50000390736025
 23
223.0000038605681
 33
0.0
 14
-30.50000390736025
 24
223.0000038605681
 34
0.0
  0
ENDBLK
  5
69
330
66
100
AcDbEntity
  8
0
100
AcDbBlockEnd
  0
BLOCK
  5
6B
330
6A
100
AcDbEntity
  8
0
100
AcDbBlockBegin
  2
3024177_D-MZB_1_5-select__6
 70
     0
 10
-11.50000079989382
 20
223.0000038605681
 30
0.0
  3
3024177_D-MZB_1_5-select__6
  1

  0
LINE
  5
F1
330
6A
100
AcDbEntity
  8
0
  6
Continuous
 62
     7
100
AcDbLine
 10
-11.08682488872726
 20
242.9745668510543
 30
0.0
 11
0.3999992001083
 21
245.0000038605682
 31
0.0
  0
LINE
  5
F2
330
6A
100
AcDbEntity
  8
0
  6
Continuous
 62
     7
100
AcDbLine
 10
0.3999992001083
 20
245.0000038605682
 30
0.0
 11
8.59999920010792
 21
245.0000038605682
 31
0.0
  0
LINE
  5
F3
330
6A
100
AcDbEntity
  8
0
  6
Continuous
 62
     7
100
AcDbLine
 10
8.59999920010792
 20
245.0000038605682
 30
0.0
 11
20.08682328894348
 21
242.9745668510543
 31
0.0
  0
LINE
  5
F4
330
6A
100
AcDbEntity
  8
0
  6
Continuous
 62
     7
100
AcDbLine
 10
-11.50000079989382
 20
231.3000038605681
 30
0.0
 11
-11.50000079989378
 21
242.4821629745482
 31
0.0
  0
LINE
  5
F5
330
6A
100
AcDbEntity
  8
0
  6
Continuous
 62
     7
100
AcDbLine
 10
-9.7627289616688
 20
223.7750528062243
 30
0.0
 11
-11.50000079989382
 21
231.3000038605681
 31
0.0
  0
LINE
  5
F6
330
6A
100
AcDbEntity
  8
0
  6
Continuous
 62
     7
100
AcDbLine
 10
-8.78835889688357
 20
223.0000038605682
 30
0.0
 11
17.78835729709979
 21
223.0000038605682
 31
0.0
  0
LINE
  5
F7
330
6A
100
AcDbEntity
  8
0
  6
Continuous
 62
     7
100
AcDbLine
 10
20.49999920011
 20
231.3000038605681
 30
0.0
 11
18.76272736188505
 21
223.7750528062243
 31
0.0
  0
LINE
  5
F8
330
6A
100
AcDbEntity
  8
0
  6
Continuous
 62
     7
100
AcDbLine
 10
20.49999920011
 20
242.4821629745482
 30
0.0
 11
20.49999920011
 21
231.3000038605681
 31
0.0
  0
ARC
  5
F9
330
6A
100
AcDbEntity
  8
0
  6
Continuous
 62
     7
100
AcDbCircle
 10
-11.00000079989378
 20
242.4821629745482
 30
0.0
 40
0.5000000000000014
100
AcDbArc
 50
100.0000000000018
 51
180.0
  0
ARC
  5
FA
330
6A
100
AcDbEntity
  8
0
  6
Continuous
 62
     7
100
AcDbCircle
 10
-8.78835889688357
 20
224.0000038605682
 30
0.0
 40
1.000000000000004
100
AcDbArc
 50
193.0000000000023
 51
270.0
  0
ARC
  5
FB
330
6A
100
AcDbEntity
  8
0
  6
Continuous
 62
     7
100
AcDbCircle
 10
17.78835729709979
 20
224.0000038605682
 30
0.0
 40
1.0
100
AcDbArc
 50
270.0
 51
346.9999999999982
  0
ARC
  5
FC
330
6A
100
AcDbEntity
  8
0
  6
Continuous
 62
     7
100
AcDbCircle
 10
19.99999920011
 20
242.4821629745482
 30
0.0
 40
0.5
100
AcDbArc
 50
0.0
 51
79.9999999999982
  0
ENDBLK
  5
6C
330
6A
100
AcDbEntity
  8
0
100
AcDbBlockEnd
  0
BLOCK
  5
6F
330
6D
100
AcDbEntity
  8
0
100
AcDbBlockBegin
  2
Vordans1
 70
     0
 10
4.49999960005402
 20
234.000003889894
 30
0.0
  3
Vordans1
  1

  0
INSERT
  5
6E
330
6D
100
AcDbEntity
  8
0
100
AcDbBlockReference
  2
3024177_D-MZB_1_5-select__6
 10
-11.50000079989382
 20
223.0000038605681
 30
0.0
  0
MTEXT
  5
FD
330
6D
100
AcDbEntity
  8
1
 62
     6
100
AcDbMText
 10
4.49999960005402
 20
220.5000019071213
 30
0.0
 40
2.5
 41
0.0
 71
     2
 72
     1
  1
 
  7
CONVERTER_11
 73
     1
 44
1.32052821128451
  0
DIMENSION
  5
108
330
6D
100
AcDbEntity
  8
1
100
AcDbDimension
  2
*D17
 10
-16.50000079989382
 20
223.0000038605682
 30
0.0
 11
-18.12500079989382
 21
234.0000038605682
 31
0.0
 70
    32
  1
<>
 71
     5
 42
-1.0
 53
90.0
  3
ME10_DIM_11
100
AcDbAlignedDimension
 13
0.3999992001083
 23
245.0000038605682
 33
0.0
 14
-8.78835889688357
 24
223.0000038605682
 34
0.0
 50
90.0
100
AcDbRotatedDimension
  0
DIMENSION
  5
113
330
6D
100
AcDbEntity
  8
1
100
AcDbDimension
  2
*D18
 10
-11.50000079989382
 20
218.0000038605681
 30
0.0
 11
4.4999992001081
 21
219.6250038605681
 31
0.0
 70
    32
  1
<>
 71
     5
 42
-1.0
 53
0.00013888888889
  3
ME10_DIM_12
100
AcDbAlignedDimension
 13
20.49999920011
 23
231.3000038605681
 33
0.0
 14
-11.50000079989382
 24
231.3000038605681
 34
0.0
100
AcDbRotatedDimension
  0
ENDBLK
  5
70
330
6D
100
AcDbEntity
  8
0
100
AcDbBlockEnd
  0
BLOCK
  5
72
330
71
100
AcDbEntity
  8
0
100
AcDbBlockBegin
  2
_rahmen
 70
     0
 10
189.5000047998862
 20
326.6076960317851
 30
0.0
  3
_rahmen
  1

  0
LINE
  5
114
330
71
100
AcDbEntity
  8
1
  6
DOT_CENTER
 62
     2
100
AcDbLine
 10
63.94185515969878
 20
352.7326960317851
 30
0.0
 11
69.44185515969878
 21
352.7326960317851
 31
0.0
  0
LINE
  5
115
330
71
100
AcDbEntity
  8
1
  6
PHANTOM
 62
     2
100
AcDbLine
 10
72.69185515969878
 20
355.4826960317851
 30
0.0
 11
72.69185515969878
 21
349.9826960317851
 31
0.0
  0
LINE
  5
116
330
71
100
AcDbEntity
  8
1
  6
PHANTOM
 62
     2
100
AcDbLine
 10
75.44185515969878
 20
352.7326960317851
 30
0.0
 11
69.94185515969878
 21
352.7326960317851
 31
0.0
  0
LINE
  5
117
330
71
100
AcDbEntity
  8
1
  6
Continuous
 62
     7
100
AcDbLine
 10
124.2552002731362
 20
340.1076960317851
 30
0.0
 11
124.2552002731362
 21
348.6076960317852
 31
0.0
  0
LINE
  5
118
330
71
100
AcDbEntity
  8
1
  6
Continuous
 62
     6
100
AcDbLine
 10
96.35520027313609
 20
348.6076960317852
 30
0.0
 11
189.5000047998879
 21
348.6076960317852
 31
0.0
  0
LINE
  5
119
330
71
100
AcDbEntity
  8
1
  6
Continuous
 62
     7
100
AcDbLine
 10
59.95520027313617
 20
348.6076960317852
 30
0.0
 11
59.95520027313617
 21
357.1076960317852
 31
0.0
  0
LINE
  5
11A
330
71
100
AcDbEntity
  8
1
  6
Continuous
 62
     7
100
AcDbLine
 10
96.35520027313609
 20
348.6076960317852
 30
0.0
 11
96.35520027313609
 21
357.1076960317852
 31
0.0
  0
LINE
  5
11B
330
71
100
AcDbEntity
  8
1
  6
Continuous
 62
     7
100
AcDbLine
 10
154.0815965182091
 20
357.1076960317852
 30
0.0
 11
154.0815965182091
 21
348.6076960317852
 31
0.0
  0
LINE
  5
11C
330
71
100
AcDbEntity
  8
1
  6
Continuous
 62
     7
100
AcDbLine
 10
180.5815965182087
 20
357.1076960317852
 30
0.0
 11
180.5815965182087
 21
348.6076960317852
 31
0.0
  0
LINE
  5
11D
330
71
100
AcDbEntity
  8
1
  6
Continuous
 62
     6
100
AcDbLine
 10
-9.0447997268638
 20
331.6076960317852
 30
0.0
 11
-53.9999952001138
 21
331.6076960317852
 31
0.0
  0
LINE
  5
11E
330
71
100
AcDbEntity
  8
1
  6
Continuous
 62
     7
100
AcDbLine
 10
189.5000047998875
 20
340.1076960317852
 30
0.0
 11
96.35520027313609
 21
340.1076960317852
 31
0.0
  0
LINE
  5
11F
102
{ACAD_REACTORS
330
231
330
232
102
}
330
71
100
AcDbEntity
  8
0
  6
Continuous
 62
     2
100
AcDbLine
 10
73.66262921490357
 20
340.9079851474485
 30
0.0
 11
73.66262921490357
 21
341.7805021542517
 31
0.0
  0
LINE
  5
120
102
{ACAD_REACTORS
330
231
330
232
102
}
330
71
100
AcDbEntity
  8
0
  6
Continuous
 62
     2
100
AcDbLine
 10
73.66262921490357
 20
339.9482164399656
 30
0.0
 11
73.66262921490357
 21
339.0756994331624
 31
0.0
  0
LINE
  5
121
102
{ACAD_REACTORS
330
233
330
234
102
}
330
71
100
AcDbEntity
  8
0
  6
Continuous
 62
     2
100
AcDbLine
 10
88.99567335119409
 20
341.169740249489
 30
0.0
 11
90.09931265076219
 21
341.169740249489
 31
0.0
  0
LINE
  5
122
102
{ACAD_REACTORS
330
233
330
234
102
}
330
71
100
AcDbEntity
  8
0
  6
Continuous
 62
     2
100
AcDbLine
 10
89.7653306941555
 20
339.9482164399651
 30
0.0
 11
89.7653306941555
 21
339.0756994331617
 31
0.0
  0
LINE
  5
123
102
{ACAD_REACTORS
330
23D
330
23E
102
}
330
71
100
AcDbEntity
  8
0
  6
Continuous
 62
     2
100
AcDbLine
 10
87.90457407877557
 20
342.2603865079758
 30
0.0
 11
89.30252712571587
 21
343.8412455017508
 31
0.0
  0
LINE
  5
124
102
{ACAD_REACTORS
330
23D
330
23E
102
}
330
71
100
AcDbEntity
  8
0
  6
Continuous
 62
     2
100
AcDbLine
 10
87.99999749494839
 20
345.314196031787
 30
0.0
 11
89.30252712571587
 21
343.8412455017508
 31
0.0
  0
LINE
  5
125
102
{ACAD_REACTORS
330
23D
330
23E
102
}
330
71
100
AcDbEntity
  8
0
  6
Continuous
 62
     2
100
AcDbLine
 10
90.60505675648227
 20
345.314196031787
 30
0.0
 11
92.00778097422949
 21
345.314196031787
 31
0.0
  0
LINE
  5
126
102
{ACAD_REACTORS
330
23D
330
23E
102
}
330
71
100
AcDbEntity
  8
0
  6
Continuous
 62
     2
100
AcDbLine
 10
89.30729829652378
 20
342.2603865079758
 30
0.0
 11
90.00388923458948
 21
343.0481182932695
 31
0.0
  0
LINE
  5
127
102
{ACAD_REACTORS
330
23D
330
23E
102
}
330
71
100
AcDbEntity
  8
0
  6
Continuous
 62
     2
100
AcDbLine
 10
89.30729829652378
 20
342.2603865079758
 30
0.0
 11
87.90457407877557
 21
342.2603865079758
 31
0.0
  0
LINE
  5
128
102
{ACAD_REACTORS
330
23F
330
240
102
}
330
71
100
AcDbEntity
  8
0
  6
Continuous
 62
     2
100
AcDbLine
 10
87.78529480855869
 20
342.2603865079758
 30
0.0
 11
86.54479039830579
 21
342.2603865079758
 31
0.0
  0
LINE
  5
129
102
{ACAD_REACTORS
330
241
330
242
102
}
330
71
100
AcDbEntity
  8
0
  6
Continuous
 62
     2
100
AcDbLine
 10
85.67681079015068
 20
340.122719841326
 30
0.0
 11
85.37664555296058
 21
340.8905348073126
 31
0.0
  0
LINE
  5
12A
102
{ACAD_REACTORS
330
241
330
242
102
}
330
71
100
AcDbEntity
  8
0
  6
Continuous
 62
     2
100
AcDbLine
 10
85.07648031576818
 20
340.122719841326
 30
0.0
 11
85.67681079015068
 21
340.122719841326
 31
0.0
  0
LINE
  5
12B
102
{ACAD_REACTORS
330
241
330
242
102
}
330
71
100
AcDbEntity
  8
0
  6
Continuous
 62
     2
100
AcDbLine
 10
83.35844030089439
 20
338.9011960318015
 30
0.0
 11
84.59894471114737
 21
338.9011960318015
 31
0.0
  0
LINE
  5
12C
102
{ACAD_REACTORS
330
241
330
242
102
}
330
71
100
AcDbEntity
  8
0
  6
Continuous
 62
     2
100
AcDbLine
 10
84.7563933478337
 20
341.9550055556126
 30
0.0
 11
85.99689775808639
 21
341.9550055556126
 31
0.0
  0
LINE
  5
12D
102
{ACAD_REACTORS
330
241
330
242
102
}
330
71
100
AcDbEntity
  8
0
  6
Continuous
 62
     2
100
AcDbLine
 10
85.99689775808639
 20
341.9550055556126
 30
0.0
 11
87.39485080502669
 21
338.9011960318015
 31
0.0
  0
LINE
  5
12E
102
{ACAD_REACTORS
330
241
330
242
102
}
330
71
100
AcDbEntity
  8
0
  6
Continuous
 62
     2
100
AcDbLine
 10
86.15434639477277
 20
338.9011960318015
 30
0.0
 11
85.94286634129699
 21
339.4421565760193
 31
0.0
  0
LINE
  5
12F
102
{ACAD_REACTORS
330
243
330
244
102
}
330
71
100
AcDbEntity
  8
0
  6
Continuous
 62
     2
100
AcDbLine
 10
82.01202719918678
 20
338.9011960318015
 30
0.0
 11
83.20481990135329
 21
338.9011960318015
 31
0.0
  0
LINE
  5
130
102
{ACAD_REACTORS
330
243
330
244
102
}
330
71
100
AcDbEntity
  8
0
  6
Continuous
 62
     2
100
AcDbLine
 10
82.01202719918678
 20
341.169740249489
 30
0.0
 11
82.01202719918678
 21
338.9011960318015
 31
0.0
  0
LINE
  5
131
102
{ACAD_REACTORS
330
243
330
244
102
}
330
71
100
AcDbEntity
  8
0
  6
Continuous
 62
     2
100
AcDbLine
 10
81.20092816171217
 20
341.9550055556126
 30
0.0
 11
81.20092816171217
 21
341.169740249489
 31
0.0
  0
LINE
  5
132
102
{ACAD_REACTORS
330
245
330
246
102
}
330
71
100
AcDbEntity
  8
0
  6
Continuous
 62
     2
100
AcDbLine
 10
82.68014204328477
 20
342.2603865079758
 30
0.0
 11
83.87293474545129
 21
342.2603865079758
 31
0.0
  0
LINE
  5
133
102
{ACAD_REACTORS
330
245
330
246
102
}
330
71
100
AcDbEntity
  8
0
  6
Continuous
 62
     2
100
AcDbLine
 10
85.1134391557053
 20
344.0054205215818
 30
0.0
 11
83.87293474545129
 21
345.314196031787
 31
0.0
  0
LINE
  5
134
102
{ACAD_REACTORS
330
245
330
246
102
}
330
71
100
AcDbEntity
  8
0
  6
Continuous
 62
     2
100
AcDbLine
 10
86.3062318578719
 20
345.314196031787
 30
0.0
 11
85.1134391557053
 21
345.314196031787
 31
0.0
  0
LINE
  5
135
102
{ACAD_REACTORS
330
245
330
246
102
}
330
71
100
AcDbEntity
  8
0
  6
Continuous
 62
     2
100
AcDbLine
 10
86.3062318578719
 20
342.2603865079758
 30
0.0
 11
86.3062318578719
 21
345.314196031787
 31
0.0
  0
LINE
  5
136
102
{ACAD_REACTORS
330
245
330
246
102
}
330
71
100
AcDbEntity
  8
0
  6
Continuous
 62
     2
100
AcDbLine
 10
85.1134391557053
 20
342.2603865079758
 30
0.0
 11
86.3062318578719
 21
342.2603865079758
 31
0.0
  0
LINE
  5
137
102
{ACAD_REACTORS
330
245
330
246
102
}
330
71
100
AcDbEntity
  8
0
  6
Continuous
 62
     2
100
AcDbLine
 10
83.87293474545129
 20
343.5691620181805
 30
0.0
 11
85.1134391557053
 21
342.2603865079758
 31
0.0
  0
LINE
  5
138
102
{ACAD_REACTORS
330
247
330
248
102
}
330
71
100
AcDbEntity
  8
0
  6
Continuous
 62
     2
100
AcDbLine
 10
79.86500033528557
 20
340.6462300454075
 30
0.0
 11
78.62449592503268
 21
341.9550055556126
 31
0.0
  0
LINE
  5
139
102
{ACAD_REACTORS
330
247
330
248
102
}
330
71
100
AcDbEntity
  8
0
  6
Continuous
 62
     2
100
AcDbLine
 10
79.86500033528557
 20
341.9550055556126
 30
0.0
 11
79.86500033528557
 21
340.6462300454075
 31
0.0
  0
LINE
  5
13A
102
{ACAD_REACTORS
330
247
330
248
102
}
330
71
100
AcDbEntity
  8
0
  6
Continuous
 62
     2
100
AcDbLine
 10
81.05779303745197
 20
341.9550055556126
 30
0.0
 11
79.86500033528557
 21
341.9550055556126
 31
0.0
  0
LINE
  5
13B
102
{ACAD_REACTORS
330
247
330
248
102
}
330
71
100
AcDbEntity
  8
0
  6
Continuous
 62
     2
100
AcDbLine
 10
81.05779303745197
 20
338.9011960318015
 30
0.0
 11
81.05779303745197
 21
341.9550055556126
 31
0.0
  0
LINE
  5
13C
102
{ACAD_REACTORS
330
247
330
248
102
}
330
71
100
AcDbEntity
  8
0
  6
Continuous
 62
     2
100
AcDbLine
 10
78.62449592503268
 20
340.2099715420061
 30
0.0
 11
79.86500033528557
 21
338.9011960318015
 31
0.0
  0
LINE
  5
13D
102
{ACAD_REACTORS
330
247
330
248
102
}
330
71
100
AcDbEntity
  8
0
  6
Continuous
 62
     2
100
AcDbLine
 10
78.62449592503268
 20
338.9011960318015
 30
0.0
 11
78.62449592503268
 21
340.2099715420061
 31
0.0
  0
LINE
  5
13E
102
{ACAD_REACTORS
330
237
330
238
102
}
330
71
100
AcDbEntity
  8
0
  6
Continuous
 62
     2
100
AcDbLine
 10
81.10565567642419
 20
344.616182426344
 30
0.0
 11
82.44158350285187
 21
344.616182426344
 31
0.0
  0
LINE
  5
13F
102
{ACAD_REACTORS
330
237
330
238
102
}
330
71
100
AcDbEntity
  8
0
  6
Continuous
 62
     2
100
AcDbLine
 10
81.10565567642419
 20
342.9584001134183
 30
0.0
 11
81.10565567642419
 21
343.43828446716
 31
0.0
  0
LINE
  5
140
102
{ACAD_REACTORS
330
237
330
238
102
}
330
71
100
AcDbEntity
  8
0
  6
Continuous
 62
     2
100
AcDbLine
 10
82.44158350285187
 20
342.9584001134183
 30
0.0
 11
81.10565567642419
 21
342.9584001134183
 31
0.0
  0
LINE
  5
141
102
{ACAD_REACTORS
330
237
330
238
102
}
330
71
100
AcDbEntity
  8
0
  6
Continuous
 62
     2
100
AcDbLine
 10
82.44158350285187
 20
342.2603865079758
 30
0.0
 11
82.44158350285187
 21
342.9584001134183
 31
0.0
  0
LINE
  5
142
102
{ACAD_REACTORS
330
237
330
238
102
}
330
71
100
AcDbEntity
  8
0
  6
Continuous
 62
     2
100
AcDbLine
 10
79.29126377907087
 20
342.2603865079758
 30
0.0
 11
82.44158350285187
 21
342.2603865079758
 31
0.0
  0
LINE
  5
143
102
{ACAD_REACTORS
330
237
330
238
102
}
330
71
100
AcDbEntity
  8
0
  6
Continuous
 62
     2
100
AcDbLine
 10
79.29126377907087
 20
345.314196031787
 30
0.0
 11
82.44158350285187
 21
345.314196031787
 31
0.0
  0
LINE
  5
144
102
{ACAD_REACTORS
330
237
330
238
102
}
330
71
100
AcDbEntity
  8
0
  6
Continuous
 62
     2
100
AcDbLine
 10
82.44158350285187
 20
344.616182426344
 30
0.0
 11
82.44158350285187
 21
345.314196031787
 31
0.0
  0
LINE
  5
145
102
{ACAD_REACTORS
330
249
330
24A
102
}
330
71
100
AcDbEntity
  8
0
  6
Continuous
 62
     2
100
AcDbLine
 10
76.42990828393087
 20
344.2453626984524
 30
0.0
 11
76.42990828393087
 21
345.314196031787
 31
0.0
  0
LINE
  5
146
102
{ACAD_REACTORS
330
249
330
24A
102
}
330
71
100
AcDbEntity
  8
0
  6
Continuous
 62
     2
100
AcDbLine
 10
76.42990828393087
 20
345.314196031787
 30
0.0
 11
77.62270098609727
 21
345.314196031787
 31
0.0
  0
LINE
  5
147
102
{ACAD_REACTORS
330
249
330
24A
102
}
330
71
100
AcDbEntity
  8
0
  6
Continuous
 62
     2
100
AcDbLine
 10
76.42990828393087
 20
343.3946586168196
 30
0.0
 11
75.38025070602339
 21
343.3946586168196
 31
0.0
  0
LINE
  5
148
102
{ACAD_REACTORS
330
249
330
24A
102
}
330
71
100
AcDbEntity
  8
0
  6
Continuous
 62
     2
100
AcDbLine
 10
75.38025070602339
 20
343.3946586168196
 30
0.0
 11
75.38025070602339
 21
342.2603865079758
 31
0.0
  0
LINE
  5
149
102
{ACAD_REACTORS
330
249
330
24A
102
}
330
71
100
AcDbEntity
  8
0
  6
Continuous
 62
     2
100
AcDbLine
 10
74.18745800385679
 20
345.314196031787
 30
0.0
 11
74.18745800385679
 21
342.2603865079758
 31
0.0
  0
LINE
  5
14A
102
{ACAD_REACTORS
330
23B
330
23C
102
}
330
71
100
AcDbEntity
  8
0
  6
Continuous
 62
     2
100
AcDbLine
 10
72.23127797230319
 20
343.9453625370047
 30
0.0
 11
72.23127797230319
 21
344.6510901863469
 31
0.0
  0
LINE
  5
14B
102
{ACAD_REACTORS
330
23B
330
23C
102
}
330
71
100
AcDbEntity
  8
0
  6
Continuous
 62
     2
100
AcDbLine
 10
70.99077356204907
 20
342.2603865079758
 30
0.0
 11
72.23127797230319
 21
342.2603865079758
 31
0.0
  0
LINE
  5
14C
102
{ACAD_REACTORS
330
23B
330
23C
102
}
330
71
100
AcDbEntity
  8
0
  6
Continuous
 62
     2
100
AcDbLine
 10
72.23127797230319
 20
342.2603865079758
 30
0.0
 11
72.23127797230319
 21
343.2034647491196
 31
0.0
  0
LINE
  5
14D
102
{ACAD_REACTORS
330
235
330
236
102
}
330
71
100
AcDbEntity
  8
0
  6
Continuous
 62
     2
100
AcDbLine
 10
66.68582771283769
 20
339.6137515873584
 30
0.0
 11
65.20999445182807
 21
339.6137515873584
 31
0.0
  0
LINE
  5
14E
102
{ACAD_REACTORS
330
235
330
236
102
}
330
71
100
AcDbEntity
  8
0
  6
Continuous
 62
     2
100
AcDbLine
 10
64.19185515969878
 20
344.889951416385
 30
0.0
 11
64.19185515969878
 21
339.3254406471848
 31
0.0
  0
LINE
  5
14F
102
{ACAD_REACTORS
330
235
330
236
102
}
330
71
100
AcDbEntity
  8
0
  6
Continuous
 62
     2
100
AcDbLine
 10
64.61609977508158
 20
345.3141960317688
 30
0.0
 11
70.08941186579838
 21
345.3141960317688
 31
0.0
  0
LINE
  5
150
102
{ACAD_REACTORS
330
235
330
236
102
}
330
71
100
AcDbEntity
  8
0
  6
Continuous
 62
     2
100
AcDbLine
 10
70.51365648118227
 20
344.889951416385
 30
0.0
 11
70.51365648118227
 21
339.3254406471848
 31
0.0
  0
LINE
  5
151
102
{ACAD_REACTORS
330
235
330
236
102
}
330
71
100
AcDbEntity
  8
0
  6
Continuous
 62
     2
100
AcDbLine
 10
70.08941186579838
 20
338.9011960318015
 30
0.0
 11
64.61609977508158
 21
338.9011960318015
 31
0.0
  0
LINE
  5
152
102
{ACAD_REACTORS
330
235
330
236
102
}
330
71
100
AcDbEntity
  8
0
  6
Continuous
 62
     2
100
AcDbLine
 10
67.00154463591429
 20
339.9294685104351
 30
0.0
 11
67.00154463591429
 21
341.4602394419667
 31
0.0
  0
LINE
  5
153
102
{ACAD_REACTORS
330
235
330
236
102
}
330
71
100
AcDbEntity
  8
0
  6
Continuous
 62
     2
100
AcDbLine
 10
67.00154463591429
 20
343.6818989340917
 30
0.0
 11
67.00154463591429
 21
344.2859235531522
 31
0.0
  0
LINE
  5
154
102
{ACAD_REACTORS
330
235
330
236
102
}
330
71
100
AcDbEntity
  8
0
  6
Continuous
 62
     2
100
AcDbLine
 10
65.20999445182807
 20
344.6016404762283
 30
0.0
 11
66.68582771283769
 21
344.6016404762283
 31
0.0
  0
LINE
  5
155
102
{ACAD_REACTORS
330
235
330
236
102
}
330
71
100
AcDbEntity
  8
0
  6
Continuous
 62
     2
100
AcDbLine
 10
64.89427752875238
 20
344.2859235531522
 30
0.0
 11
64.89427752875238
 21
339.9294685104351
 31
0.0
  0
LINE
  5
156
102
{ACAD_REACTORS
330
23B
330
23C
102
}
330
71
100
AcDbEntity
  8
0
  6
Continuous
 62
     2
100
AcDbLine
 10
72.23127797230319
 20
343.2034647491196
 30
0.0
 11
72.99004556008347
 21
343.2034647491196
 31
0.0
  0
LINE
  5
157
102
{ACAD_REACTORS
330
23B
330
23C
102
}
330
71
100
AcDbEntity
  8
0
  6
Continuous
 62
     2
100
AcDbLine
 10
70.99077356204907
 20
345.314196031787
 30
0.0
 11
72.99004556008347
 21
345.314196031787
 31
0.0
  0
LINE
  5
158
102
{ACAD_REACTORS
330
23B
330
23C
102
}
330
71
100
AcDbEntity
  8
0
  6
Continuous
 62
     2
100
AcDbLine
 10
70.99077356204907
 20
345.314196031787
 30
0.0
 11
70.99077356204907
 21
342.2603865079758
 31
0.0
  0
LINE
  5
159
102
{ACAD_REACTORS
330
23B
330
23C
102
}
330
71
100
AcDbEntity
  8
0
  6
Continuous
 62
     2
100
AcDbLine
 10
72.23127797230319
 20
343.9453625370047
 30
0.0
 11
72.54857303384509
 21
343.9453625370047
 31
0.0
  0
LINE
  5
15A
102
{ACAD_REACTORS
330
23B
330
23C
102
}
330
71
100
AcDbEntity
  8
0
  6
Continuous
 62
     2
100
AcDbLine
 10
72.23127797230319
 20
344.6510901863469
 30
0.0
 11
72.54857303384509
 21
344.6510901863469
 31
0.0
  0
LINE
  5
15B
102
{ACAD_REACTORS
330
249
330
24A
102
}
330
71
100
AcDbEntity
  8
0
  6
Continuous
 62
     2
100
AcDbLine
 10
75.38025070602339
 20
344.2453626984524
 30
0.0
 11
76.42990828393087
 21
344.2453626984524
 31
0.0
  0
LINE
  5
15C
102
{ACAD_REACTORS
330
249
330
24A
102
}
330
71
100
AcDbEntity
  8
0
  6
Continuous
 62
     2
100
AcDbLine
 10
75.38025070602339
 20
345.314196031787
 30
0.0
 11
75.38025070602339
 21
344.2453626984524
 31
0.0
  0
LINE
  5
15D
102
{ACAD_REACTORS
330
249
330
24A
102
}
330
71
100
AcDbEntity
  8
0
  6
Continuous
 62
     2
100
AcDbLine
 10
74.18745800385679
 20
345.314196031787
 30
0.0
 11
75.38025070602339
 21
345.314196031787
 31
0.0
  0
LINE
  5
15E
102
{ACAD_REACTORS
330
249
330
24A
102
}
330
71
100
AcDbEntity
  8
0
  6
Continuous
 62
     2
100
AcDbLine
 10
75.38025070602339
 20
342.2603865079758
 30
0.0
 11
74.18745800385679
 21
342.2603865079758
 31
0.0
  0
LINE
  5
15F
102
{ACAD_REACTORS
330
249
330
24A
102
}
330
71
100
AcDbEntity
  8
0
  6
Continuous
 62
     2
100
AcDbLine
 10
76.42990828393087
 20
342.2603865079758
 30
0.0
 11
76.42990828393087
 21
343.3946586168196
 31
0.0
  0
LINE
  5
160
102
{ACAD_REACTORS
330
249
330
24A
102
}
330
71
100
AcDbEntity
  8
0
  6
Continuous
 62
     2
100
AcDbLine
 10
77.62270098609727
 20
342.2603865079758
 30
0.0
 11
76.42990828393087
 21
342.2603865079758
 31
0.0
  0
LINE
  5
161
102
{ACAD_REACTORS
330
249
330
24A
102
}
330
71
100
AcDbEntity
  8
0
  6
Continuous
 62
     2
100
AcDbLine
 10
77.62270098609727
 20
345.314196031787
 30
0.0
 11
77.62270098609727
 21
342.2603865079758
 31
0.0
  0
LINE
  5
162
102
{ACAD_REACTORS
330
237
330
238
102
}
330
71
100
AcDbEntity
  8
0
  6
Continuous
 62
     2
100
AcDbLine
 10
81.10565567642419
 20
343.43828446716
 30
0.0
 11
82.44158350285187
 21
343.43828446716
 31
0.0
  0
LINE
  5
163
102
{ACAD_REACTORS
330
237
330
238
102
}
330
71
100
AcDbEntity
  8
0
  6
Continuous
 62
     2
100
AcDbLine
 10
82.44158350285187
 20
343.43828446716
 30
0.0
 11
82.44158350285187
 21
344.1362980726022
 31
0.0
  0
LINE
  5
164
102
{ACAD_REACTORS
330
237
330
238
102
}
330
71
100
AcDbEntity
  8
0
  6
Continuous
 62
     2
100
AcDbLine
 10
82.44158350285187
 20
344.1362980726022
 30
0.0
 11
81.10565567642419
 21
344.1362980726022
 31
0.0
  0
LINE
  5
165
102
{ACAD_REACTORS
330
237
330
238
102
}
330
71
100
AcDbEntity
  8
0
  6
Continuous
 62
     2
100
AcDbLine
 10
81.10565567642419
 20
344.1362980726022
 30
0.0
 11
81.10565567642419
 21
344.616182426344
 31
0.0
  0
LINE
  5
166
102
{ACAD_REACTORS
330
247
330
248
102
}
330
71
100
AcDbEntity
  8
0
  6
Continuous
 62
     2
100
AcDbLine
 10
77.43170322286508
 20
338.9011960318015
 30
0.0
 11
78.62449592503268
 21
338.9011960318015
 31
0.0
  0
LINE
  5
167
102
{ACAD_REACTORS
330
247
330
248
102
}
330
71
100
AcDbEntity
  8
0
  6
Continuous
 62
     2
100
AcDbLine
 10
79.86500033528557
 20
338.9011960318015
 30
0.0
 11
81.05779303745197
 21
338.9011960318015
 31
0.0
  0
LINE
  5
168
102
{ACAD_REACTORS
330
247
330
248
102
}
330
71
100
AcDbEntity
  8
0
  6
Continuous
 62
     2
100
AcDbLine
 10
78.62449592503268
 20
341.9550055556126
 30
0.0
 11
77.43170322286508
 21
341.9550055556126
 31
0.0
  0
LINE
  5
169
102
{ACAD_REACTORS
330
247
330
248
102
}
330
71
100
AcDbEntity
  8
0
  6
Continuous
 62
     2
100
AcDbLine
 10
77.43170322286508
 20
341.9550055556126
 30
0.0
 11
77.43170322286508
 21
338.9011960318015
 31
0.0
  0
LINE
  5
16A
102
{ACAD_REACTORS
330
245
330
246
102
}
330
71
100
AcDbEntity
  8
0
  6
Continuous
 62
     2
100
AcDbLine
 10
85.1134391557053
 20
345.314196031787
 30
0.0
 11
85.1134391557053
 21
344.0054205215818
 31
0.0
  0
LINE
  5
16B
102
{ACAD_REACTORS
330
245
330
246
102
}
330
71
100
AcDbEntity
  8
0
  6
Continuous
 62
     2
100
AcDbLine
 10
83.87293474545129
 20
345.314196031787
 30
0.0
 11
82.68014204328477
 21
345.314196031787
 31
0.0
  0
LINE
  5
16C
102
{ACAD_REACTORS
330
245
330
246
102
}
330
71
100
AcDbEntity
  8
0
  6
Continuous
 62
     2
100
AcDbLine
 10
82.68014204328477
 20
345.314196031787
 30
0.0
 11
82.68014204328477
 21
342.2603865079758
 31
0.0
  0
LINE
  5
16D
102
{ACAD_REACTORS
330
245
330
246
102
}
330
71
100
AcDbEntity
  8
0
  6
Continuous
 62
     2
100
AcDbLine
 10
83.87293474545129
 20
342.2603865079758
 30
0.0
 11
83.87293474545129
 21
343.5691620181805
 31
0.0
  0
LINE
  5
16E
102
{ACAD_REACTORS
330
243
330
244
102
}
330
71
100
AcDbEntity
  8
0
  6
Continuous
 62
     2
100
AcDbLine
 10
83.20481990135329
 20
338.9011960318015
 30
0.0
 11
83.20481990135329
 21
341.169740249489
 31
0.0
  0
LINE
  5
16F
102
{ACAD_REACTORS
330
243
330
244
102
}
330
71
100
AcDbEntity
  8
0
  6
Continuous
 62
     2
100
AcDbLine
 10
83.20481990135329
 20
341.169740249489
 30
0.0
 11
84.01591893882579
 21
341.169740249489
 31
0.0
  0
LINE
  5
170
102
{ACAD_REACTORS
330
243
330
244
102
}
330
71
100
AcDbEntity
  8
0
  6
Continuous
 62
     2
100
AcDbLine
 10
84.01591893882579
 20
341.169740249489
 30
0.0
 11
84.01591893882579
 21
341.9550055556126
 31
0.0
  0
LINE
  5
171
102
{ACAD_REACTORS
330
243
330
244
102
}
330
71
100
AcDbEntity
  8
0
  6
Continuous
 62
     2
100
AcDbLine
 10
84.01591893882579
 20
341.9550055556126
 30
0.0
 11
81.20092816171217
 21
341.9550055556126
 31
0.0
  0
LINE
  5
172
102
{ACAD_REACTORS
330
243
330
244
102
}
330
71
100
AcDbEntity
  8
0
  6
Continuous
 62
     2
100
AcDbLine
 10
81.20092816171217
 20
341.169740249489
 30
0.0
 11
82.01202719918678
 21
341.169740249489
 31
0.0
  0
LINE
  5
173
102
{ACAD_REACTORS
330
241
330
242
102
}
330
71
100
AcDbEntity
  8
0
  6
Continuous
 62
     2
100
AcDbLine
 10
84.81042476462318
 20
339.4421565760193
 30
0.0
 11
85.94286634129699
 21
339.4421565760193
 31
0.0
  0
LINE
  5
174
102
{ACAD_REACTORS
330
241
330
242
102
}
330
71
100
AcDbEntity
  8
0
  6
Continuous
 62
     2
100
AcDbLine
 10
87.39485080502669
 20
338.9011960318015
 30
0.0
 11
86.15434639477277
 21
338.9011960318015
 31
0.0
  0
LINE
  5
175
102
{ACAD_REACTORS
330
241
330
242
102
}
330
71
100
AcDbEntity
  8
0
  6
Continuous
 62
     2
100
AcDbLine
 10
84.7563933478337
 20
341.9550055556126
 30
0.0
 11
83.35844030089439
 21
338.9011960318015
 31
0.0
  0
LINE
  5
176
102
{ACAD_REACTORS
330
241
330
242
102
}
330
71
100
AcDbEntity
  8
0
  6
Continuous
 62
     2
100
AcDbLine
 10
84.59894471114737
 20
338.9011960318015
 30
0.0
 11
84.81042476462318
 21
339.4421565760193
 31
0.0
  0
LINE
  5
177
102
{ACAD_REACTORS
330
241
330
242
102
}
330
71
100
AcDbEntity
  8
0
  6
Continuous
 62
     2
100
AcDbLine
 10
85.07648031576818
 20
340.122719841326
 30
0.0
 11
85.37664555296058
 21
340.8905348073126
 31
0.0
  0
LINE
  5
178
102
{ACAD_REACTORS
330
23F
330
240
102
}
330
71
100
AcDbEntity
  8
0
  6
Continuous
 62
     2
100
AcDbLine
 10
86.54479039830579
 20
342.2603865079758
 30
0.0
 11
86.54479039830579
 21
345.314196031787
 31
0.0
  0
LINE
  5
179
102
{ACAD_REACTORS
330
23F
330
240
102
}
330
71
100
AcDbEntity
  8
0
  6
Continuous
 62
     2
100
AcDbLine
 10
87.78529480855869
 20
345.314196031787
 30
0.0
 11
87.78529480855869
 21
342.2603865079758
 31
0.0
  0
LINE
  5
17A
102
{ACAD_REACTORS
330
23F
330
240
102
}
330
71
100
AcDbEntity
  8
0
  6
Continuous
 62
     2
100
AcDbLine
 10
86.54479039830579
 20
345.314196031787
 30
0.0
 11
87.78529480855869
 21
345.314196031787
 31
0.0
  0
LINE
  5
17B
102
{ACAD_REACTORS
330
23D
330
23E
102
}
330
71
100
AcDbEntity
  8
0
  6
Continuous
 62
     2
100
AcDbLine
 10
90.00388923458948
 20
343.0481182932695
 30
0.0
 11
90.70048017265498
 21
342.2603865079758
 31
0.0
  0
LINE
  5
17C
102
{ACAD_REACTORS
330
23D
330
23E
102
}
330
71
100
AcDbEntity
  8
0
  6
Continuous
 62
     2
100
AcDbLine
 10
90.70048017265498
 20
342.2603865079758
 30
0.0
 11
92.10320439040328
 21
342.2603865079758
 31
0.0
  0
LINE
  5
17D
102
{ACAD_REACTORS
330
23D
330
23E
102
}
330
71
100
AcDbEntity
  8
0
  6
Continuous
 62
     2
100
AcDbLine
 10
90.70525134346298
 20
343.8412455017508
 30
0.0
 11
92.10320439040328
 21
342.2603865079758
 31
0.0
  0
LINE
  5
17E
102
{ACAD_REACTORS
330
23D
330
23E
102
}
330
71
100
AcDbEntity
  8
0
  6
Continuous
 62
     2
100
AcDbLine
 10
90.70525134346298
 20
343.8412455017508
 30
0.0
 11
92.00778097422949
 21
345.314196031787
 31
0.0
  0
LINE
  5
17F
102
{ACAD_REACTORS
330
23D
330
23E
102
}
330
71
100
AcDbEntity
  8
0
  6
Continuous
 62
     2
100
AcDbLine
 10
90.00388923458948
 20
344.6343727102315
 30
0.0
 11
90.60505675648227
 21
345.314196031787
 31
0.0
  0
LINE
  5
180
102
{ACAD_REACTORS
330
23D
330
23E
102
}
330
71
100
AcDbEntity
  8
0
  6
Continuous
 62
     2
100
AcDbLine
 10
89.40272171269768
 20
345.314196031787
 30
0.0
 11
90.00388923458948
 21
344.6343727102315
 31
0.0
  0
LINE
  5
181
102
{ACAD_REACTORS
330
23D
330
23E
102
}
330
71
100
AcDbEntity
  8
0
  6
Continuous
 62
     2
100
AcDbLine
 10
89.40272171269768
 20
345.314196031787
 30
0.0
 11
87.99999749494839
 21
345.314196031787
 31
0.0
  0
LINE
  5
182
102
{ACAD_REACTORS
330
233
330
234
102
}
330
71
100
AcDbEntity
  8
0
  6
Continuous
 62
     2
100
AcDbLine
 10
90.09931265076219
 20
338.9011960318015
 30
0.0
 11
91.2921053529299
 21
338.9011960318015
 31
0.0
  0
LINE
  5
183
102
{ACAD_REACTORS
330
233
330
234
102
}
330
71
100
AcDbEntity
  8
0
  6
Continuous
 62
     2
100
AcDbLine
 10
91.2921053529299
 20
338.9011960318015
 30
0.0
 11
91.2921053529299
 21
341.169740249489
 31
0.0
  0
LINE
  5
184
102
{ACAD_REACTORS
330
233
330
234
102
}
330
71
100
AcDbEntity
  8
0
  6
Continuous
 62
     2
100
AcDbLine
 10
91.2921053529299
 20
341.169740249489
 30
0.0
 11
92.10320439040328
 21
341.169740249489
 31
0.0
  0
LINE
  5
185
102
{ACAD_REACTORS
330
233
330
234
102
}
330
71
100
AcDbEntity
  8
0
  6
Continuous
 62
     2
100
AcDbLine
 10
92.10320439040328
 20
341.169740249489
 30
0.0
 11
92.10320439040328
 21
341.9550055556126
 31
0.0
  0
LINE
  5
186
102
{ACAD_REACTORS
330
233
330
234
102
}
330
71
100
AcDbEntity
  8
0
  6
Continuous
 62
     2
100
AcDbLine
 10
88.7182588717746
 20
341.9550055556121
 30
0.0
 11
92.10320439040328
 21
341.9550055556126
 31
0.0
  0
LINE
  5
187
102
{ACAD_REACTORS
330
233
330
234
102
}
330
71
100
AcDbEntity
  8
0
  6
Continuous
 62
     2
100
AcDbLine
 10
90.09931265076219
 20
341.169740249489
 30
0.0
 11
90.09931265076219
 21
338.9011960318015
 31
0.0
  0
LINE
  5
188
102
{ACAD_REACTORS
330
235
330
236
102
}
330
71
100
AcDbEntity
  8
0
  6
Continuous
 62
     2
100
AcDbLine
 10
67.46982621528298
 20
340.880076181366
 30
0.0
 11
67.46982621528298
 21
341.461927588061
 31
0.0
  0
LINE
  5
189
102
{ACAD_REACTORS
330
235
330
236
102
}
330
71
100
AcDbEntity
  8
0
  6
Continuous
 62
     2
100
AcDbLine
 10
67.46982621528298
 20
343.6802107879973
 30
0.0
 11
67.46982621528298
 21
344.2857460765041
 31
0.0
  0
LINE
  5
18A
330
71
100
AcDbEntity
  8
1
  6
Continuous
 62
     6
100
AcDbLine
 10
46.0000047998862
 20
331.6076960317852
 30
0.0
 11
59.95520027313617
 21
331.6076960317851
 31
0.0
  0
LINE
  5
18B
330
71
100
AcDbEntity
  8
1
  6
Continuous
 62
     6
100
AcDbLine
 10
-3.99999520011403
 20
331.6076960317852
 30
0.0
 11
-9.0447997268638
 21
331.6076960317852
 31
0.0
  0
LINE
  5
18C
330
71
100
AcDbEntity
  8
1
  6
Continuous
 62
     6
100
AcDbLine
 10
146.0000047998862
 20
331.6076960317852
 30
0.0
 11
189.5000047998862
 21
331.6076960317852
 31
0.0
  0
LINE
  5
18D
330
71
100
AcDbEntity
  8
1
  6
Continuous
 62
     6
100
AcDbLine
 10
96.00000479988617
 20
331.6076960317852
 30
0.0
 11
78.15520027313619
 21
331.6076960317852
 31
0.0
  0
LINE
  5
18E
330
71
100
AcDbEntity
  8
1
  6
Continuous
 62
     2
100
AcDbLine
 10
189.5000047998862
 20
331.6076960317852
 30
0.0
 11
194.5000047998852
 21
331.6076960317852
 31
0.0
  0
LINE
  5
18F
330
71
100
AcDbEntity
  8
1
  6
Continuous
 62
     2
100
AcDbLine
 10
189.5000047998862
 20
331.6076960317852
 30
0.0
 11
189.5000047998862
 21
326.6076960317851
 31
0.0
  0
LINE
  5
190
330
71
100
AcDbEntity
  8
1
  6
Continuous
 62
     6
100
AcDbLine
 10
59.95520027313617
 20
348.6076960317852
 30
0.0
 11
96.35520027313609
 21
348.6076960317852
 31
0.0
  0
LINE
  5
191
330
71
100
AcDbEntity
  8
1
  6
Continuous
 62
     2
100
AcDbLine
 10
194.5000047998852
 20
326.6076960317851
 30
0.0
 11
194.5000047998852
 21
331.6076960317852
 31
0.0
  0
LINE
  5
192
330
71
100
AcDbEntity
  8
1
  6
Continuous
 62
     2
100
AcDbLine
 10
194.5000047998852
 20
326.6076960317851
 30
0.0
 11
189.5000047998862
 21
326.6076960317851
 31
0.0
  0
LINE
  5
193
330
71
100
AcDbEntity
  8
1
  6
Continuous
 62
     2
100
AcDbLine
 10
189.5000047998862
 20
326.6076960317851
 30
0.0
 11
146.0000047998862
 21
326.6076960317851
 31
0.0
  0
LINE
  5
194
330
71
100
AcDbEntity
  8
1
  6
Continuous
 62
     6
100
AcDbLine
 10
189.5000047998879
 20
348.6076960317852
 30
0.0
 11
189.5000047998871
 21
381.6076960317853
 31
0.0
  0
LINE
  5
195
330
71
100
AcDbEntity
  8
1
  6
Continuous
 62
     2
100
AcDbLine
 10
194.5000047998852
 20
536.6076960317852
 30
0.0
 11
46.0000047998862
 21
536.6076960317852
 31
0.0
  0
LINE
  5
196
330
71
100
AcDbEntity
  8
1
  6
Continuous
 62
     6
100
AcDbLine
 10
189.5000047998852
 20
516.6076960317852
 30
0.0
 11
-97.49999520011289
 21
516.6076960317852
 31
0.0
  0
LINE
  5
197
330
71
100
AcDbEntity
  8
1
  6
Continuous
 62
     2
100
AcDbLine
 10
189.5000047998871
 20
381.6076960317853
 30
0.0
 11
194.5000047998852
 21
381.6076960317853
 31
0.0
  0
LINE
  5
198
330
71
100
AcDbEntity
  8
1
  6
Continuous
 62
     6
100
AcDbLine
 10
189.5000047998871
 20
381.6076960317853
 30
0.0
 11
189.5000047998866
 21
431.6076960317851
 31
0.0
  0
LINE
  5
199
330
71
100
AcDbEntity
  8
1
  6
Continuous
 62
     2
100
AcDbLine
 10
194.5000047998852
 20
381.6076960317853
 30
0.0
 11
194.5000047998852
 21
431.6076960317851
 31
0.0
  0
LINE
  5
19A
330
71
100
AcDbEntity
  8
1
  6
Continuous
 62
     2
100
AcDbLine
 10
189.5000047998866
 20
431.6076960317851
 30
0.0
 11
194.5000047998852
 21
431.6076960317851
 31
0.0
  0
LINE
  5
19B
330
71
100
AcDbEntity
  8
1
  6
Continuous
 62
     6
100
AcDbLine
 10
189.5000047998866
 20
431.6076960317851
 30
0.0
 11
189.5000047998854
 21
481.6076960317852
 31
0.0
  0
LINE
  5
19C
330
71
100
AcDbEntity
  8
1
  6
Continuous
 62
     2
100
AcDbLine
 10
194.5000047998852
 20
431.6076960317851
 30
0.0
 11
194.5000047998852
 21
481.6076960317852
 31
0.0
  0
LINE
  5
19D
330
71
100
AcDbEntity
  8
1
  6
Continuous
 62
     2
100
AcDbLine
 10
189.5000047998854
 20
481.6076960317852
 30
0.0
 11
194.5000047998852
 21
481.6076960317852
 31
0.0
  0
LINE
  5
19E
330
71
100
AcDbEntity
  8
1
  6
Continuous
 62
     6
100
AcDbLine
 10
189.5000047998854
 20
481.6076960317852
 30
0.0
 11
189.5000047998852
 21
516.6076960317852
 31
0.0
  0
LINE
  5
19F
330
71
100
AcDbEntity
  8
1
  6
Continuous
 62
     2
100
AcDbLine
 10
194.5000047998852
 20
481.6076960317852
 30
0.0
 11
194.5000047998852
 21
536.6076960317852
 31
0.0
  0
LINE
  5
1A0
330
71
100
AcDbEntity
  8
1
  6
Continuous
 62
     2
100
AcDbLine
 10
194.5000047998852
 20
331.6076960317852
 30
0.0
 11
194.5000047998852
 21
381.6076960317853
 31
0.0
  0
LINE
  5
1A1
330
71
100
AcDbEntity
  8
1
  6
Continuous
 62
     2
100
AcDbLine
 10
46.0000047998862
 20
536.6076960317852
 30
0.0
 11
-102.4999952001129
 21
536.6076960317852
 31
0.0
  0
LINE
  5
1A2
330
71
100
AcDbEntity
  8
1
  6
Continuous
 62
     2
100
AcDbLine
 10
46.0000047998862
 20
536.6076960317852
 30
0.0
 11
46.0000047998862
 21
527.3990041870838
 31
0.0
  0
LINE
  5
1A3
330
71
100
AcDbEntity
  8
1
  6
Continuous
 62
     2
100
AcDbLine
 10
-102.4999952001129
 20
326.6076960317851
 30
0.0
 11
-97.49999520011193
 21
326.6076960317851
 31
0.0
  0
LINE
  5
1A4
330
71
100
AcDbEntity
  8
1
  6
Continuous
 62
     2
100
AcDbLine
 10
-102.4999952001129
 20
536.6076960317852
 30
0.0
 11
-102.4999952001129
 21
481.6076960317852
 31
0.0
  0
LINE
  5
1A5
330
71
100
AcDbEntity
  8
1
  6
Continuous
 62
     6
100
AcDbLine
 10
-97.49999520011289
 20
516.6076960317852
 30
0.0
 11
-97.49999520011283
 21
481.6076960317852
 31
0.0
  0
LINE
  5
1A6
330
71
100
AcDbEntity
  8
1
  6
Continuous
 62
     2
100
AcDbLine
 10
-102.4999952001129
 20
481.6076960317852
 30
0.0
 11
-97.49999520011283
 21
481.6076960317852
 31
0.0
  0
LINE
  5
1A7
330
71
100
AcDbEntity
  8
1
  6
Continuous
 62
     2
100
AcDbLine
 10
-102.4999952001129
 20
481.6076960317852
 30
0.0
 11
-102.4999952001129
 21
431.6076960317851
 31
0.0
  0
LINE
  5
1A8
330
71
100
AcDbEntity
  8
1
  6
Continuous
 62
     6
100
AcDbLine
 10
-97.49999520011283
 20
481.6076960317852
 30
0.0
 11
-97.49999520011232
 21
431.6076960317851
 31
0.0
  0
LINE
  5
1A9
330
71
100
AcDbEntity
  8
1
  6
Continuous
 62
     2
100
AcDbLine
 10
-102.4999952001129
 20
431.6076960317851
 30
0.0
 11
-97.49999520011232
 21
431.6076960317851
 31
0.0
  0
LINE
  5
1AA
330
71
100
AcDbEntity
  8
1
  6
Continuous
 62
     2
100
AcDbLine
 10
-102.4999952001129
 20
431.6076960317851
 30
0.0
 11
-102.4999952001129
 21
381.6076960317853
 31
0.0
  0
LINE
  5
1AB
330
71
100
AcDbEntity
  8
1
  6
Continuous
 62
     6
100
AcDbLine
 10
-97.49999520011232
 20
431.6076960317851
 30
0.0
 11
-97.4999952001121
 21
381.6076960317853
 31
0.0
  0
LINE
  5
1AC
330
71
100
AcDbEntity
  8
1
  6
Continuous
 62
     2
100
AcDbLine
 10
-102.4999952001129
 20
381.6076960317853
 30
0.0
 11
-97.4999952001121
 21
381.6076960317853
 31
0.0
  0
LINE
  5
1AD
330
71
100
AcDbEntity
  8
1
  6
Continuous
 62
     2
100
AcDbLine
 10
-102.4999952001129
 20
381.6076960317853
 30
0.0
 11
-102.4999952001129
 21
331.6076960317852
 31
0.0
  0
LINE
  5
1AE
330
71
100
AcDbEntity
  8
1
  6
Continuous
 62
     6
100
AcDbLine
 10
-97.4999952001121
 20
381.6076960317853
 30
0.0
 11
-97.49999520011193
 21
331.6076960317852
 31
0.0
  0
LINE
  5
1AF
330
71
100
AcDbEntity
  8
1
  6
Continuous
 62
     2
100
AcDbLine
 10
-53.9999952001138
 20
326.6076960317851
 30
0.0
 11
-53.9999952001138
 21
331.6076960317852
 31
0.0
  0
LINE
  5
1B0
330
71
100
AcDbEntity
  8
1
  6
Continuous
 62
     2
100
AcDbLine
 10
-53.9999952001138
 20
326.6076960317851
 30
0.0
 11
-3.99999520011403
 21
326.6076960317851
 31
0.0
  0
LINE
  5
1B1
330
71
100
AcDbEntity
  8
1
  6
Continuous
 62
     2
100
AcDbLine
 10
-3.99999520011403
 20
326.6076960317851
 30
0.0
 11
-3.99999520011403
 21
331.6076960317852
 31
0.0
  0
LINE
  5
1B2
330
71
100
AcDbEntity
  8
1
  6
Continuous
 62
     2
100
AcDbLine
 10
-3.99999520011403
 20
326.6076960317851
 30
0.0
 11
46.0000047998862
 21
326.6076960317851
 31
0.0
  0
LINE
  5
1B3
330
71
100
AcDbEntity
  8
1
  6
Continuous
 62
     2
100
AcDbLine
 10
46.0000047998862
 20
326.6076960317851
 30
0.0
 11
46.0000047998862
 21
331.6076960317852
 31
0.0
  0
LINE
  5
1B4
330
71
100
AcDbEntity
  8
1
  6
Continuous
 62
     2
100
AcDbLine
 10
46.0000047998862
 20
326.6076960317851
 30
0.0
 11
96.00000479988617
 21
326.6076960317851
 31
0.0
  0
LINE
  5
1B5
330
71
100
AcDbEntity
  8
1
  6
Continuous
 62
     2
100
AcDbLine
 10
96.00000479988617
 20
326.6076960317851
 30
0.0
 11
96.00000479988617
 21
331.6076960317852
 31
0.0
  0
LINE
  5
1B6
330
71
100
AcDbEntity
  8
1
  6
Continuous
 62
     2
100
AcDbLine
 10
146.0000047998862
 20
326.6076960317851
 30
0.0
 11
146.0000047998862
 21
331.6076960317852
 31
0.0
  0
LINE
  5
1B7
330
71
100
AcDbEntity
  8
1
  6
Continuous
 62
     2
100
AcDbLine
 10
146.0000047998862
 20
326.6076960317851
 30
0.0
 11
96.00000479988617
 21
326.6076960317851
 31
0.0
  0
LINE
  5
1B8
330
71
100
AcDbEntity
  8
1
  6
Continuous
 62
     2
100
AcDbLine
 10
-97.49999520011193
 20
331.6076960317852
 30
0.0
 11
-97.49999520011193
 21
326.6076960317851
 31
0.0
  0
LINE
  5
1B9
330
71
100
AcDbEntity
  8
1
  6
Continuous
 62
     2
100
AcDbLine
 10
-97.49999520011193
 20
326.6076960317851
 30
0.0
 11
-53.9999952001138
 21
326.6076960317851
 31
0.0
  0
LINE
  5
1BA
330
71
100
AcDbEntity
  8
1
  6
Continuous
 62
     2
100
AcDbLine
 10
-97.49999520011193
 20
331.6076960317852
 30
0.0
 11
-102.4999952001129
 21
331.6076960317852
 31
0.0
  0
LINE
  5
1BB
330
71
100
AcDbEntity
  8
1
  6
Continuous
 62
     2
100
AcDbLine
 10
-102.4999952001129
 20
331.6076960317852
 30
0.0
 11
-102.4999952001129
 21
326.6076960317851
 31
0.0
  0
LINE
  5
1BC
330
71
100
AcDbEntity
  8
1
  6
Continuous
 62
     6
100
AcDbLine
 10
189.5000047998862
 20
331.6076960317852
 30
0.0
 11
189.5000047998875
 21
340.1076960317852
 31
0.0
  0
LINE
  5
1BD
330
71
100
AcDbEntity
  8
1
  6
Continuous
 62
     6
100
AcDbLine
 10
96.35520027313609
 20
331.6076960317851
 30
0.0
 11
146.0000047998862
 21
331.6076960317852
 31
0.0
  0
LINE
  5
1BE
330
71
100
AcDbEntity
  8
1
  6
Continuous
 62
     6
100
AcDbLine
 10
-56.29999520011404
 20
331.6076960317851
 30
0.0
 11
-53.9999952001138
 21
331.6076960317852
 31
0.0
  0
LINE
  5
1BF
330
71
100
AcDbEntity
  8
1
  6
Continuous
 62
     6
100
AcDbLine
 10
46.0000047998862
 20
331.6076960317852
 30
0.0
 11
-3.99999520011403
 21
331.6076960317852
 31
0.0
  0
LINE
  5
1C0
330
71
100
AcDbEntity
  8
1
  6
Continuous
 62
     7
100
AcDbLine
 10
59.95520027313617
 20
348.6076960317852
 30
0.0
 11
59.95520027313617
 21
335.8576960317851
 31
0.0
  0
LINE
  5
1C1
330
71
100
AcDbEntity
  8
1
  6
Continuous
 62
     7
100
AcDbLine
 10
96.35520027313609
 20
348.6076960317852
 30
0.0
 11
96.35520027313609
 21
335.8576960317852
 31
0.0
  0
LINE
  5
1C2
330
71
100
AcDbEntity
  8
1
  6
Continuous
 62
     6
100
AcDbLine
 10
-56.29999520011404
 20
331.6076960317851
 30
0.0
 11
-62.49999520011204
 21
331.6076960317852
 31
0.0
  0
LINE
  5
1C3
330
71
100
AcDbEntity
  8
1
  6
Continuous
 62
     6
100
AcDbLine
 10
96.35520027313609
 20
331.6076960317851
 30
0.0
 11
96.00000479988617
 21
331.6076960317852
 31
0.0
  0
LINE
  5
1C4
330
71
100
AcDbEntity
  8
1
  6
Continuous
 62
     6
100
AcDbLine
 10
189.5000047998879
 20
348.6076960317852
 30
0.0
 11
189.5000047998875
 21
340.1076960317852
 31
0.0
  0
LINE
  5
1C5
330
71
100
AcDbEntity
  8
1
  6
Continuous
 62
     6
100
AcDbLine
 10
-62.49999520011204
 20
331.6076960317852
 30
0.0
 11
-97.49999520011193
 21
331.6076960317852
 31
0.0
  0
LINE
  5
1C6
330
71
100
AcDbEntity
  8
1
  6
Continuous
 62
     2
100
AcDbLine
 10
64.19185515969878
 20
353.9826960317851
 30
0.0
 11
69.19185515969878
 21
355.2326960317851
 31
0.0
  0
LINE
  5
1C7
330
71
100
AcDbEntity
  8
1
  6
Continuous
 62
     2
100
AcDbLine
 10
64.19185515969878
 20
351.4826960317851
 30
0.0
 11
64.19185515969878
 21
353.9826960317851
 31
0.0
  0
LINE
  5
1C8
330
71
100
AcDbEntity
  8
1
  6
Continuous
 62
     2
100
AcDbLine
 10
69.19185515969878
 20
350.2326960317851
 30
0.0
 11
64.19185515969878
 21
351.4826960317851
 31
0.0
  0
LINE
  5
1C9
330
71
100
AcDbEntity
  8
1
  6
Continuous
 62
     2
100
AcDbLine
 10
69.19185515969878
 20
355.2326960317851
 30
0.0
 11
69.19185515969878
 21
350.2326960317851
 31
0.0
  0
LINE
  5
1CA
330
71
100
AcDbEntity
  8
1
  6
Continuous
 62
     7
100
AcDbLine
 10
59.95520027313617
 20
335.8576960317851
 30
0.0
 11
78.15520027313619
 21
335.8576960317852
 31
0.0
  0
LINE
  5
1CB
330
71
100
AcDbEntity
  8
1
  6
Continuous
 62
     7
100
AcDbLine
 10
59.95520027313617
 20
335.8576960317851
 30
0.0
 11
59.95520027313617
 21
331.6076960317851
 31
0.0
  0
LINE
  5
1CC
330
71
100
AcDbEntity
  8
1
  6
Continuous
 62
     7
100
AcDbLine
 10
96.35520027313609
 20
335.8576960317852
 30
0.0
 11
96.35520027313609
 21
331.6076960317851
 31
0.0
  0
LINE
  5
1CD
330
71
100
AcDbEntity
  8
1
  6
Continuous
 62
     7
100
AcDbLine
 10
78.15520027313619
 20
335.8576960317852
 30
0.0
 11
78.15520027313619
 21
331.6076960317852
 31
0.0
  0
LINE
  5
1CE
330
71
100
AcDbEntity
  8
1
  6
Continuous
 62
     6
100
AcDbLine
 10
78.15520027313619
 20
331.6076960317852
 30
0.0
 11
59.95520027313617
 21
331.6076960317851
 31
0.0
  0
LINE
  5
1CF
330
71
100
AcDbEntity
  8
1
  6
Continuous
 62
     7
100
AcDbLine
 10
78.15520027313619
 20
335.8576960317852
 30
0.0
 11
96.35520027313609
 21
335.8576960317852
 31
0.0
  0
LINE
  5
1D0
330
71
100
AcDbEntity
  8
1
  6
Continuous
 62
     6
100
AcDbLine
 10
59.95520027313617
 20
357.1076960317852
 30
0.0
 11
189.5000047998879
 21
357.1076960317852
 31
0.0
  0
ARC
  5
1D1
102
{ACAD_REACTORS
330
239
330
23A
102
}
330
71
100
AcDbEntity
  8
0
  6
Continuous
 62
     2
100
AcDbCircle
 10
75.34684827209617
 20
340.4281007937068
 30
0.0
 40
0.7717997786796947
100
AcDbArc
 50
321.8795802028417
 51
38.12041979715494
  0
ARC
  5
1D2
102
{ACAD_REACTORS
330
239
330
23A
102
}
330
71
100
AcDbEntity
  8
0
  6
Continuous
 62
     2
100
AcDbCircle
 10
75.54658830844258
 20
340.2713696155868
 30
0.0
 40
0.5179085730137529
100
AcDbArc
 50
218.1204197971956
 51
321.8795802027985
  0
ARC
  5
1D3
102
{ACAD_REACTORS
330
239
330
23A
102
}
330
71
100
AcDbEntity
  8
0
  6
Continuous
 62
     2
100
AcDbCircle
 10
75.74632834478868
 20
340.4281007937068
 30
0.0
 40
0.7717997786794808
100
AcDbArc
 50
141.8795802028346
 51
218.1204197971687
  0
ARC
  5
1D4
102
{ACAD_REACTORS
330
239
330
23A
102
}
330
71
100
AcDbEntity
  8
0
  6
Continuous
 62
     2
100
AcDbCircle
 10
75.54658830844258
 20
340.5848319718273
 30
0.0
 40
0.5179085730132998
100
AcDbArc
 50
38.12041979714704
 51
141.8795802028588
  0
ARC
  5
1D5
102
{ACAD_REACTORS
330
231
330
232
102
}
330
71
100
AcDbEntity
  8
0
  6
Continuous
 62
     2
100
AcDbCircle
 10
72.4845741728787
 20
339.0176344282986
 30
0.0
 40
2.227384008973501
100
AcDbArc
 50
58.06909105004111
 51
71.55192388186745
  0
ARC
  5
1D6
102
{ACAD_REACTORS
330
231
330
232
102
}
330
71
100
AcDbEntity
  8
0
  6
Continuous
 62
     2
100
AcDbCircle
 10
72.74630187383747
 20
340.6331722230458
 30
0.0
 40
0.511580060194904
100
AcDbArc
 50
113.3722778881979
 51
151.4785267423044
  0
ARC
  5
1D7
102
{ACAD_REACTORS
330
231
330
232
102
}
330
71
100
AcDbEntity
  8
0
  6
Continuous
 62
     2
100
AcDbCircle
 10
73.12365913191778
 20
340.4281007937068
 30
0.0
 40
0.9410597353332545
100
AcDbArc
 50
151.4785267422669
 51
208.5214732577118
  0
ARC
  5
1D8
102
{ACAD_REACTORS
330
231
330
232
102
}
330
71
100
AcDbEntity
  8
0
  6
Continuous
 62
     2
100
AcDbCircle
 10
72.32670129778577
 20
343.7407817389632
 30
0.0
 40
4.852596863498279
100
AcDbArc
 50
275.1581447696248
 51
285.9799912583529
  0
ARC
  5
1D9
102
{ACAD_REACTORS
330
231
330
232
102
}
330
71
100
AcDbEntity
  8
0
  6
Continuous
 62
     2
100
AcDbCircle
 10
72.61555739252168
 20
340.5408911557416
 30
0.0
 40
1.63969512393938
100
AcDbArc
 50
195.0618917770886
 51
275.1581447696393
  0
ARC
  5
1DA
102
{ACAD_REACTORS
330
231
330
232
102
}
330
71
100
AcDbEntity
  8
0
  6
Continuous
 62
     2
100
AcDbCircle
 10
72.19642954905888
 20
340.4281007937068
 30
0.0
 40
1.205656168390944
100
AcDbArc
 50
164.9381082228765
 51
195.0618917770948
  0
ARC
  5
1DB
102
{ACAD_REACTORS
330
231
330
232
102
}
330
71
100
AcDbEntity
  8
0
  6
Continuous
 62
     2
100
AcDbCircle
 10
72.61555739252168
 20
340.3153104316718
 30
0.0
 40
1.63969512394062
100
AcDbArc
 50
84.84185523036271
 51
164.9381082228826
  0
ARC
  5
1DC
102
{ACAD_REACTORS
330
235
330
236
102
}
330
71
100
AcDbEntity
  8
0
  6
Continuous
 62
     2
100
AcDbCircle
 10
67.78554313835977
 20
341.461927588061
 30
0.0
 40
0.3157169230766355
100
AcDbArc
 50
115.374008678343
 51
180.0
  0
ARC
  5
1DD
102
{ACAD_REACTORS
330
235
330
236
102
}
330
71
100
AcDbEntity
  8
0
  6
Continuous
 62
     2
100
AcDbCircle
 10
67.78554313835977
 20
343.6802107879973
 30
0.0
 40
0.315716923076792
100
AcDbArc
 50
180.0
 51
244.6259913216437
  0
ARC
  5
1DE
102
{ACAD_REACTORS
330
235
330
236
102
}
330
71
100
AcDbEntity
  8
0
  6
Continuous
 62
     2
100
AcDbCircle
 10
67.79115927366979
 20
342.5829111289349
 30
0.0
 40
2.018561131933266
100
AcDbArc
 50
269.8110329575858
 51
90.18896704241413
  0
ARC
  5
1DF
102
{ACAD_REACTORS
330
235
330
236
102
}
330
71
100
AcDbEntity
  8
0
  6
Continuous
 62
     2
100
AcDbCircle
 10
67.78554313835977
 20
340.880076181366
 30
0.0
 40
0.315716923076792
100
AcDbArc
 50
180.0
 51
269.8110329574542
  0
ARC
  5
1E0
102
{ACAD_REACTORS
330
233
330
234
102
}
330
71
100
AcDbEntity
  8
0
  6
Continuous
 62
     2
100
AcDbCircle
 10
88.84900335309038
 20
340.6331722230458
 30
0.0
 40
0.5115800601944143
100
AcDbArc
 50
109.3371432194853
 51
151.4785267424197
  0
ARC
  5
1E1
102
{ACAD_REACTORS
330
233
330
234
102
}
330
71
100
AcDbEntity
  8
0
  6
Continuous
 62
     2
100
AcDbCircle
 10
88.84900335309038
 20
340.2230293643682
 30
0.0
 40
0.5115800601959674
100
AcDbArc
 50
208.5214732576754
 51
246.6277221118399
  0
ARC
  5
1E2
102
{ACAD_REACTORS
330
233
330
234
102
}
330
71
100
AcDbEntity
  8
0
  6
Continuous
 62
     2
100
AcDbCircle
 10
88.29913102831298
 20
340.4281007937068
 30
0.0
 40
1.205656168393002
100
AcDbArc
 50
164.9381082229028
 51
195.0618917770946
  0
ARC
  5
1E3
102
{ACAD_REACTORS
330
233
330
234
102
}
330
71
100
AcDbEntity
  8
0
  6
Continuous
 62
     2
100
AcDbCircle
 10
88.7182588717746
 20
340.3153104316718
 30
0.0
 40
1.639695123940328
100
AcDbArc
 50
90.0
 51
164.9381082228911
  0
ARC
  5
1E4
102
{ACAD_REACTORS
330
237
330
238
102
}
330
71
100
AcDbEntity
  8
0
  6
Continuous
 62
     2
100
AcDbCircle
 10
79.29126377907087
 20
343.7872912698811
 30
0.0
 40
1.526904761905882
100
AcDbArc
 50
90.0
 51
270.0
  0
ARC
  5
1E5
102
{ACAD_REACTORS
330
23B
330
23C
102
}
330
71
100
AcDbEntity
  8
0
  6
Continuous
 62
     2
100
AcDbCircle
 10
72.54857303384509
 20
344.2982263616758
 30
0.0
 40
0.3528638246710898
100
AcDbArc
 50
270.0
 51
90.0
  0
ARC
  5
1E6
102
{ACAD_REACTORS
330
235
330
236
102
}
330
71
100
AcDbEntity
  8
0
  6
Continuous
 62
     2
100
AcDbCircle
 10
65.20999445182807
 20
344.2859235531522
 30
0.0
 40
0.3157169230760815
100
AcDbArc
 50
90.0
 51
180.0
  0
ARC
  5
1E7
102
{ACAD_REACTORS
330
235
330
236
102
}
330
71
100
AcDbEntity
  8
0
  6
Continuous
 62
     2
100
AcDbCircle
 10
67.20841216041268
 20
342.5710691880295
 30
0.0
 40
0.9118975235575889
100
AcDbArc
 50
115.194410648529
 51
244.8055893514878
  0
ARC
  5
1E8
102
{ACAD_REACTORS
330
235
330
236
102
}
330
71
100
AcDbEntity
  8
0
  6
Continuous
 62
     2
100
AcDbCircle
 10
66.68582771283769
 20
341.4602394419667
 30
0.0
 40
0.315716923076593
100
AcDbArc
 50
0.0
 51
64.80558935146468
  0
ARC
  5
1E9
102
{ACAD_REACTORS
330
235
330
236
102
}
330
71
100
AcDbEntity
  8
0
  6
Continuous
 62
     2
100
AcDbCircle
 10
64.61609977508158
 20
339.3254406471848
 30
0.0
 40
0.4242446153828041
100
AcDbArc
 50
180.0
 51
270.0
  0
ARC
  5
1EA
102
{ACAD_REACTORS
330
237
330
238
102
}
330
71
100
AcDbEntity
  8
0
  6
Continuous
 62
     2
100
AcDbCircle
 10
79.50753578923607
 20
343.9440224480015
 30
0.0
 40
0.5179085730135967
100
AcDbArc
 50
38.12041979715324
 51
141.879580202839
  0
ARC
  5
1EB
102
{ACAD_REACTORS
330
237
330
238
102
}
330
71
100
AcDbEntity
  8
0
  6
Continuous
 62
     2
100
AcDbCircle
 10
79.70727582558237
 20
343.7872912698811
 30
0.0
 40
0.7717997786796724
100
AcDbArc
 50
141.8795802028404
 51
218.1204197971629
  0
ARC
  5
1EC
102
{ACAD_REACTORS
330
239
330
23A
102
}
330
71
100
AcDbEntity
  8
0
  6
Continuous
 62
     2
100
AcDbCircle
 10
75.54658830844258
 20
340.96667580401
 30
0.0
 40
2.065479772208382
100
AcDbArc
 50
242.4518518243383
 51
297.5481481756889
  0
ARC
  5
1ED
102
{ACAD_REACTORS
330
239
330
23A
102
}
330
71
100
AcDbEntity
  8
0
  6
Continuous
 62
     2
100
AcDbCircle
 10
75.54658830844258
 20
339.889525783404
 30
0.0
 40
2.065479772208593
100
AcDbArc
 50
62.45185182430674
 51
117.548148175666
  0
ARC
  5
1EE
102
{ACAD_REACTORS
330
239
330
23A
102
}
330
71
100
AcDbEntity
  8
0
  6
Continuous
 62
     2
100
AcDbCircle
 10
75.26564841660928
 20
340.4281007937068
 30
0.0
 40
1.458034083651515
100
AcDbArc
 50
117.5481481756619
 51
242.451851824337
  0
ARC
  5
1EF
102
{ACAD_REACTORS
330
239
330
23A
102
}
330
71
100
AcDbEntity
  8
0
  6
Continuous
 62
     2
100
AcDbCircle
 10
75.82752820027588
 20
340.4281007937068
 30
0.0
 40
1.458034083651977
100
AcDbArc
 50
297.5481481757016
 51
62.45185182429947
  0
ARC
  5
1F0
102
{ACAD_REACTORS
330
237
330
238
102
}
330
71
100
AcDbEntity
  8
0
  6
Continuous
 62
     2
100
AcDbCircle
 10
79.50753578923607
 20
343.6305600917607
 30
0.0
 40
0.5179085730135072
100
AcDbArc
 50
218.120419797161
 51
321.8795802028467
  0
ARC
  5
1F1
102
{ACAD_REACTORS
330
237
330
238
102
}
330
71
100
AcDbEntity
  8
0
  6
Continuous
 62
     2
100
AcDbCircle
 10
79.30779575288989
 20
343.7872912698811
 30
0.0
 40
0.7717997786797075
100
AcDbArc
 50
321.8795802028371
 51
38.12041979715956
  0
ARC
  5
1F2
102
{ACAD_REACTORS
330
235
330
236
102
}
330
71
100
AcDbEntity
  8
0
  6
Continuous
 62
     2
100
AcDbCircle
 10
70.08941186579838
 20
339.3254406471848
 30
0.0
 40
0.4242446153833157
100
AcDbArc
 50
270.0
 51
0.0
  0
ARC
  5
1F3
102
{ACAD_REACTORS
330
235
330
236
102
}
330
71
100
AcDbEntity
  8
0
  6
Continuous
 62
     2
100
AcDbCircle
 10
70.08941186579838
 20
344.889951416385
 30
0.0
 40
0.4242446153838841
100
AcDbArc
 50
0.0
 51
90.0
  0
ARC
  5
1F4
102
{ACAD_REACTORS
330
235
330
236
102
}
330
71
100
AcDbEntity
  8
0
  6
Continuous
 62
     2
100
AcDbCircle
 10
64.61609977508158
 20
344.889951416385
 30
0.0
 40
0.4242446153838273
100
AcDbArc
 50
90.0
 51
180.0
  0
ARC
  5
1F5
102
{ACAD_REACTORS
330
235
330
236
102
}
330
71
100
AcDbEntity
  8
0
  6
Continuous
 62
     2
100
AcDbCircle
 10
66.68582771283769
 20
339.9294685104351
 30
0.0
 40
0.3157169230766499
100
AcDbArc
 50
270.0
 51
0.0
  0
ARC
  5
1F6
102
{ACAD_REACTORS
330
235
330
236
102
}
330
71
100
AcDbEntity
  8
0
  6
Continuous
 62
     2
100
AcDbCircle
 10
66.68582771283769
 20
343.6818989340917
 30
0.0
 40
0.3157169230761203
100
AcDbArc
 50
295.1944106485397
 51
0.0
  0
ARC
  5
1F7
102
{ACAD_REACTORS
330
235
330
236
102
}
330
71
100
AcDbEntity
  8
0
  6
Continuous
 62
     2
100
AcDbCircle
 10
66.68582771283769
 20
344.2859235531522
 30
0.0
 40
0.315716923076593
100
AcDbArc
 50
0.0
 51
90.0
  0
ARC
  5
1F8
102
{ACAD_REACTORS
330
235
330
236
102
}
330
71
100
AcDbEntity
  8
0
  6
Continuous
 62
     2
100
AcDbCircle
 10
65.20999445182807
 20
339.9294685104351
 30
0.0
 40
0.3157169230756836
100
AcDbArc
 50
180.0
 51
270.0
  0
ARC
  5
1F9
102
{ACAD_REACTORS
330
23B
330
23C
102
}
330
71
100
AcDbEntity
  8
0
  6
Continuous
 62
     2
100
AcDbCircle
 10
72.99004556008347
 20
344.2588303904533
 30
0.0
 40
1.055365641333708
100
AcDbArc
 50
270.0
 51
90.0
  0
ARC
  5
1FA
102
{ACAD_REACTORS
330
233
330
234
102
}
330
71
100
AcDbEntity
  8
0
  6
Continuous
 62
     2
100
AcDbCircle
 10
88.7182588717746
 20
340.5408911557416
 30
0.0
 40
1.639695123940434
100
AcDbArc
 50
195.0618917770993
 51
275.1581447696762
  0
ARC
  5
1FB
102
{ACAD_REACTORS
330
233
330
234
102
}
330
71
100
AcDbEntity
  8
0
  6
Continuous
 62
     2
100
AcDbCircle
 10
88.42940277703877
 20
343.7407817389632
 30
0.0
 40
4.852596863498881
100
AcDbArc
 50
275.1581447696363
 51
285.9799912583382
  0
ARC
  5
1FC
102
{ACAD_REACTORS
330
233
330
234
102
}
330
71
100
AcDbEntity
  8
0
  6
Continuous
 62
     2
100
AcDbCircle
 10
88.58727565213158
 20
341.8385671591149
 30
0.0
 40
2.227384008972773
100
AcDbArc
 50
288.4480761181333
 51
301.9309089499394
  0
ARC
  5
1FD
102
{ACAD_REACTORS
330
233
330
234
102
}
330
71
100
AcDbEntity
  8
0
  6
Continuous
 62
     2
100
AcDbCircle
 10
89.00544338579348
 20
340.5850213830782
 30
0.0
 40
0.9059297849851757
100
AcDbArc
 50
246.6277221118154
 51
288.448076118084
  0
ARC
  5
1FE
102
{ACAD_REACTORS
330
233
330
234
102
}
330
71
100
AcDbEntity
  8
0
  6
Continuous
 62
     2
100
AcDbCircle
 10
89.22636061117177
 20
340.4281007937068
 30
0.0
 40
0.941059735334906
100
AcDbArc
 50
151.4785267423609
 51
208.5214732576695
  0
ARC
  5
1FF
102
{ACAD_REACTORS
330
233
330
234
102
}
330
71
100
AcDbEntity
  8
0
  6
Continuous
 62
     2
100
AcDbCircle
 10
88.99567335119409
 20
340.2152172426629
 30
0.0
 40
0.9545230068260935
100
AcDbArc
 50
90.0
 51
109.337143219432
  0
ARC
  5
200
102
{ACAD_REACTORS
330
235
330
236
102
}
330
71
100
AcDbEntity
  8
0
  6
Continuous
 62
     2
100
AcDbCircle
 10
67.78554313835977
 20
344.2857460765041
 30
0.0
 40
0.3157169230760711
100
AcDbArc
 50
90.18896704254594
 51
180.0
  0
ARC
  5
201
102
{ACAD_REACTORS
330
235
330
236
102
}
330
71
100
AcDbEntity
  8
0
  6
Continuous
 62
     2
100
AcDbCircle
 10
67.25950044027189
 20
342.5710691880295
 30
0.0
 40
0.9118481501444847
100
AcDbArc
 50
295.3740086781757
 51
64.62599132180748
  0
ARC
  5
202
102
{ACAD_REACTORS
330
231
330
232
102
}
330
71
100
AcDbEntity
  8
0
  6
Continuous
 62
     2
100
AcDbCircle
 10
72.4845741728787
 20
341.8385671591154
 30
0.0
 40
2.22738400897271
100
AcDbArc
 50
288.448076118133
 51
301.9309089499604
  0
ARC
  5
203
102
{ACAD_REACTORS
330
231
330
232
102
}
330
71
100
AcDbEntity
  8
0
  6
Continuous
 62
     2
100
AcDbCircle
 10
72.90274190653949
 20
340.5850213830782
 30
0.0
 40
0.9059297849848149
100
AcDbArc
 50
246.6277221118682
 51
288.4480761181601
  0
ARC
  5
204
102
{ACAD_REACTORS
330
231
330
232
102
}
330
71
100
AcDbEntity
  8
0
  6
Continuous
 62
     2
100
AcDbCircle
 10
72.74630187383747
 20
340.2230293643682
 30
0.0
 40
0.5115800601948034
100
AcDbArc
 50
208.5214732576956
 51
246.6277221118223
  0
ARC
  5
205
102
{ACAD_REACTORS
330
231
330
232
102
}
330
71
100
AcDbEntity
  8
0
  6
Continuous
 62
     2
100
AcDbCircle
 10
72.90274190653949
 20
340.2711802043352
 30
0.0
 40
0.9059297849853228
100
AcDbArc
 50
71.55192388185348
 51
113.372277888129
  0
ARC
  5
206
102
{ACAD_REACTORS
330
231
330
232
102
}
330
71
100
AcDbEntity
  8
0
  6
Continuous
 62
     2
100
AcDbCircle
 10
72.32670129778577
 20
337.1154198484509
 30
0.0
 40
4.852596863497931
100
AcDbArc
 50
74.02000874164692
 51
84.84185523037502
  0
CIRCLE
  5
207
102
{ACAD_REACTORS
330
235
330
236
102
}
330
71
100
AcDbEntity
  8
0
  6
Continuous
 62
     2
100
AcDbCircle
 10
67.23568542559909
 20
342.5710691880295
 30
0.0
 40
0.4709789327785074
  0
CIRCLE
  5
208
330
71
100
AcDbEntity
  8
1
  6
Continuous
 62
     2
100
AcDbCircle
 10
72.69185515969878
 20
352.7326960317851
 30
0.0
 40
1.249999999999915
  0
CIRCLE
  5
209
330
71
100
AcDbEntity
  8
1
  6
Continuous
 62
     2
100
AcDbCircle
 10
72.69185515969878
 20
352.7326960317851
 30
0.0
 40
2.5
  0
TEXT
  5
20A
330
71
100
AcDbEntity
  8
1
 62
     7
100
AcDbText
 10
115.32874799515
 20
349.9076960317851
 30
0.0
 40
2.5
  1
/
 41
0.9
  7
CONVERTER_11
100
AcDbText
  0
TEXT
  5
20C
330
71
100
AcDbEntity
  8
1
 62
     7
100
AcDbText
 10
117.485112492192
 20
349.9076960317851
 30
0.0
 40
2.5
  1
01
 41
0.81
  7
CONVERTER_12
100
AcDbText
  0
TEXT
  5
20D
330
71
100
AcDbEntity
  8
1
 62
     3
100
AcDbText
 10
155.0815965182091
 20
349.9076960317851
 30
0.0
 40
2.5
  1
17.06.2009
 41
0.81
  7
CONVERTER_12
100
AcDbText
  0
MTEXT
  5
20E
330
71
100
AcDbEntity
  8
1
 62
     2
100
AcDbMText
 10
155.0815965182091
 20
356.1076960317851
 30
0.0
 40
1.8
 41
0.0
 71
     1
 72
     1
  1
date
  7
CONVERTER_11
 73
     1
 44
1.32052821128451
  0
MTEXT
  5
20F
330
71
100
AcDbEntity
  8
1
 62
     2
100
AcDbMText
 10
125.2552002731362
 20
347.6076960317851
 30
0.0
 40
1.8
 41
0.0
 71
     1
 72
     1
  1
document-type
  7
CONVERTER_11
 73
     1
 44
1.20048019207683
  0
TEXT
  5
210
330
71
100
AcDbEntity
  8
1
 62
     3
100
AcDbText
 10
125.2552002731362
 20
341.4076960317851
 30
0.0
 40
2.5
  1
Customer drawing select
 41
0.81
  7
CONVERTER_12
100
AcDbText
  0
MTEXT
  5
212
330
71
100
AcDbEntity
  8
1
 62
     2
100
AcDbMText
 10
97.45520027313617
 20
356.1076960317852
 30
0.0
 40
1.8
 41
0.0
 71
     1
 72
     1
  1
document-No. / RI
  7
CONVERTER_13
 73
     1
 44
1.32052821128451
  0
TEXT
  5
213
330
71
100
AcDbEntity
  8
1
 62
     7
100
AcDbText
 10
97.45520027313617
 20
349.9076960317851
 30
0.0
 40
2.5
  1
00345924
 41
0.81
  7
CONVERTER_12
100
AcDbText
  0
MTEXT
  5
215
330
71
100
AcDbEntity
  8
1
 62
     3
100
AcDbMText
 10
185.0408006590485
 20
349.9076960317852
 30
0.0
 40
2.5
 41
0.0
 71
     8
 72
     1
  1
2:1
  7
CONVERTER_14
 73
     1
 44
1.32052821128451
  0
MTEXT
  5
216
330
71
100
AcDbEntity
  8
1
 62
     2
100
AcDbMText
 10
181.6815965182089
 20
356.1076960317852
 30
0.0
 40
1.8
 41
0.0
 71
     1
 72
     1
  1
scale
  7
CONVERTER_11
 73
     1
 44
1.20048019207683
  0
MTEXT
  5
217
330
71
100
AcDbEntity
  8
1
 62
     2
100
AcDbMText
 10
97.45520027313617
 20
347.6076960317852
 30
0.0
 40
1.8
 41
0.0
 71
     1
 72
     1
  1
ident.-No.
  7
CONVERTER_11
 73
     1
 44
1.20048019207683
  0
TEXT
  5
218
330
71
100
AcDbEntity
  8
1
 62
     7
100
AcDbText
 10
97.85520027313589
 20
341.4076960317851
 30
0.0
 40
2.5
  1
3024177
 41
0.81
  7
CONVERTER_12
100
AcDbText
  0
MTEXT
  5
219
330
71
100
AcDbEntity
  8
1
 62
     2
100
AcDbMText
 10
25.51718554808866
 20
344.3576960317851
 30
0.0
 40
2.0
 41
0.0
 71
     5
 72
     1
  1
General Information\P- Simplified representation\P- Document excluded from change process\P- Linear dimensions [mm]
  7
CONVERTER_11
 73
     1
 44
1.20048019207683
  0
MTEXT
  5
21A
330
71
100
AcDbEntity
  8
1
 62
     7
100
AcDbMText
 10
192.0000047998852
 20
406.6076960317871
 30
0.0
 40
3.5
 41
0.0
 71
     5
 72
     1
  1
C
  7
CONVERTER_11
 73
     1
 44
1.20048019207683
  0
MTEXT
  5
21B
330
71
100
AcDbEntity
  8
1
 62
     7
100
AcDbMText
 10
192.0000047998852
 20
509.1076960317852
 30
0.0
 40
3.5
 41
0.0
 71
     5
 72
     1
  1
A
  7
CONVERTER_11
 73
     1
 44
1.20048019207683
  0
MTEXT
  5
21C
330
71
100
AcDbEntity
  8
1
 62
     7
100
AcDbMText
 10
192.0000047998852
 20
456.6076960317871
 30
0.0
 40
3.5
 41
0.0
 71
     5
 72
     1
  1
B
  7
CONVERTER_11
 73
     1
 44
1.20048019207683
  0
MTEXT
  5
21D
330
71
100
AcDbEntity
  8
1
 62
     7
100
AcDbMText
 10
192.0000047998852
 20
354.1076960317852
 30
0.0
 40
3.5
 41
0.0
 71
     5
 72
     1
  1
D
  7
CONVERTER_11
 73
     1
 44
1.20048019207683
  0
MTEXT
  5
21E
330
71
100
AcDbEntity
  8
1
 62
     7
100
AcDbMText
 10
-78.2499952001134
 20
329.1076960317851
 30
0.0
 40
3.5
 41
0.0
 71
     5
 72
     1
  1
1
  7
CONVERTER_11
 73
     1
 44
1.20048019207683
  0
MTEXT
  5
21F
330
71
100
AcDbEntity
  8
1
 62
     7
100
AcDbMText
 10
-28.9999952001138
 20
329.1076960317851
 30
0.0
 40
3.5
 41
0.0
 71
     5
 72
     1
  1
2
  7
CONVERTER_11
 73
     1
 44
1.20048019207683
  0
MTEXT
  5
220
330
71
100
AcDbEntity
  8
1
 62
     7
100
AcDbMText
 10
21.0000047998862
 20
329.1076960317851
 30
0.0
 40
3.5
 41
0.0
 71
     5
 72
     1
  1
3
  7
CONVERTER_11
 73
     1
 44
1.20048019207683
  0
MTEXT
  5
221
330
71
100
AcDbEntity
  8
1
 62
     7
100
AcDbMText
 10
71.00000479988609
 20
329.1076960317851
 30
0.0
 40
3.5
 41
0.0
 71
     5
 72
     1
  1
4
  7
CONVERTER_11
 73
     1
 44
1.20048019207683
  0
MTEXT
  5
222
330
71
100
AcDbEntity
  8
1
 62
     7
100
AcDbMText
 10
121.0000047998862
 20
329.1076960317851
 30
0.0
 40
3.5
 41
0.0
 71
     5
 72
     1
  1
5
  7
CONVERTER_11
 73
     1
 44
1.20048019207683
  0
MTEXT
  5
223
330
71
100
AcDbEntity
  8
1
 62
     7
100
AcDbMText
 10
170.2500047998854
 20
329.1076960317851
 30
0.0
 40
3.5
 41
0.0
 71
     5
 72
     1
  1
6
  7
CONVERTER_11
 73
     1
 44
1.20048019207683
  0
MTEXT
  5
224
330
71
100
AcDbEntity
  8
1
 62
     7
100
AcDbMText
 10
-99.99999520011289
 20
509.1076960317852
 30
0.0
 40
3.5
 41
0.0
 71
     5
 72
     1
  1
A
  7
CONVERTER_11
 73
     1
 44
1.20048019207683
  0
MTEXT
  5
225
330
71
100
AcDbEntity
  8
1
 62
     7
100
AcDbMText
 10
-99.99999520011289
 20
456.6076960317852
 30
0.0
 40
3.5
 41
0.0
 71
     5
 72
     1
  1
B
  7
CONVERTER_11
 73
     1
 44
1.20048019207683
  0
MTEXT
  5
226
330
71
100
AcDbEntity
  8
1
 62
     7
100
AcDbMText
 10
-99.99999520011289
 20
406.6076960317852
 30
0.0
 40
3.5
 41
0.0
 71
     5
 72
     1
  1
C
  7
CONVERTER_11
 73
     1
 44
1.20048019207683
  0
MTEXT
  5
227
330
71
100
AcDbEntity
  8
1
 62
     7
100
AcDbMText
 10
-99.99999520011289
 20
354.1076960317852
 30
0.0
 40
3.5
 41
0.0
 71
     5
 72
     1
  1
D
  7
CONVERTER_11
 73
     1
 44
1.20048019207683
  0
MTEXT
  5
228
330
71
100
AcDbEntity
  8
1
 62
     3
100
AcDbMText
 10
86.15520027313607
 20
352.7326960317852
 30
0.0
 40
2.5
 41
0.0
 71
     5
 72
     1
  1
DIN A4
  7
CONVERTER_11
 73
     1
 44
1.20048019207683
  0
MTEXT
  5
229
330
71
100
AcDbEntity
  8
1
 62
     2
100
AcDbMText
 10
97.35520027313609
 20
339.1076960317852
 30
0.0
 40
1.8
 41
0.0
 71
     1
 72
     1
  1
description
  7
CONVERTER_11
 73
     1
 44
1.20048019207683
  0
MTEXT
  5
22A
330
71
100
AcDbEntity
  8
1
 62
     7
100
AcDbMText
 10
142.9276025365117
 20
334.8576960317854
 30
0.0
 40
3.0
 41
0.0
 71
     5
 72
     1
  1
D-MZB 1,5
  7
CONVERTER_12
 73
     1
 44
1.20048019207683
  0
TEXT
  5
22B
330
71
100
AcDbEntity
  8
1
 62
     2
100
AcDbText
 10
84.39050908294968
 20
332.8576960317851
 30
0.0
 40
1.8
  1
1
 41
0.9
  7
CONVERTER_11
100
AcDbText
  0
TEXT
  5
22C
330
71
100
AcDbEntity
  8
1
 62
     2
100
AcDbText
 10
69.60146524347817
 20
332.8084473779832
 30
0.0
 40
1.8
  1
1
 41
0.9
  7
CONVERTER_11
100
AcDbText
  0
TEXT
  5
22D
330
71
100
AcDbEntity
  8
1
 62
     2
100
AcDbText
 10
60.95520027313617
 20
332.8486788167935
 30
0.0
 40
1.8
  1
page
 41
0.9
  7
CONVERTER_11
100
AcDbText
  0
TEXT
  5
22E
330
71
100
AcDbEntity
  8
1
 62
     2
100
AcDbText
 10
79.15520027313599
 20
332.8486788167936
 30
0.0
 40
1.8
  1
of
 41
0.9
  7
CONVERTER_11
100
AcDbText
  0
MTEXT
  5
22F
330
71
100
AcDbEntity
  8
1
 62
     3
100
AcDbMText
 10
85.35818242474608
 20
518.399004187084
 30
0.0
 40
1.8
 41
0.0
 71
     7
 72
     1
  3
Transfer or duplication of this document as well as the utilisation or\Pcommunication of its content are not permitted unless express consent\Pis granted. Violations give rise to claims for damages. All rights reserved\Pin case of patent, utility mo
  1
del or design patent registrations.
  7
CONVERTER_11
 73
     1
 44
0.99639855942377
  0
MTEXT
  5
230
330
71
100
AcDbEntity
  8
1
 62
     3
100
AcDbMText
 10
-97.49492741404202
 20
518.399004187084
 30
0.0
 40
1.8
 41
0.0
 71
     7
 72
     1
  3
Weitergabe sowie Vervielf\U+00e4ltigung dieses Dokuments, Verwertung und \PMitteilung seines Inhalts sind verboten, soweit nicht ausdr\U+00fccklich gestattet. \PZuwiderhandlungen verpflichten zu Schadenersatz. Alle Rechte f\U+00fcr den Fall\Pder Pat
  1
ent-, Gebrauchsmuster- oder Designeintragung vorbehalten.
  7
CONVERTER_11
 73
     1
 44
0.99639855942377
  0
HATCH
  5
231
330
71
100
AcDbEntity
  8
1
  6
Continuous
 62
     2
100
AcDbHatch
 10
0.0
 20
0.0
 30
0.0
210
0.0
220
0.0
230
1.0
  2
_USER
 70
     0
 71
     1
 91
        1
 92
        1
 93
       14
 72
     2
 10
72.19642954905888
 20
340.4281007937068
 40
1.205656168390944
 50
164.9381082228765
 51
195.0618917770948
 73
     1
 72
     2
 10
72.61555739252168
 20
340.5408911557416
 40
1.63969512393938
 50
195.0618917770886
 51
275.1581447696393
 73
     1
 72
     2
 10
72.32670129778577
 20
343.7407817389632
 40
4.852596863498279
 50
275.1581447696248
 51
285.9799912583529
 73
     1
 72
     1
 10
73.66262921490357
 20
339.0756994331624
 11
73.66262921490357
 21
339.9482164399656
 72
     2
 10
72.4845741728787
 20
341.8385671591154
 40
2.22738400897271
 50
58.06909105003953
 51
71.55192388186698
 73
     0
 72
     2
 10
72.90274190653949
 20
340.5850213830782
 40
0.9059297849848149
 50
71.55192388183985
 51
113.3722778881318
 73
     0
 72
     2
 10
72.74630187383747
 20
340.2230293643682
 40
0.5115800601948034
 50
113.3722778881777
 51
151.4785267423044
 73
     0
 72
     2
 10
73.12365913191778
 20
340.4281007937068
 40
0.9410597353332545
 50
151.4785267422882
 51
208.5214732577331
 73
     0
 72
     2
 10
72.74630187383747
 20
340.6331722230458
 40
0.511580060194904
 50
208.5214732576956
 51
246.6277221118021
 73
     0
 72
     2
 10
72.90274190653949
 20
340.2711802043352
 40
0.9059297849853228
 50
246.627722111871
 51
288.4480761181465
 73
     0
 72
     2
 10
72.4845741728787
 20
339.0176344282986
 40
2.227384008973501
 50
288.4480761181326
 51
301.9309089499589
 73
     0
 72
     1
 10
73.66262921490357
 20
340.9079851474485
 11
73.66262921490357
 21
341.7805021542517
 72
     2
 10
72.32670129778577
 20
337.1154198484509
 40
4.852596863497931
 50
74.02000874164692
 51
84.84185523037502
 73
     1
 72
     2
 10
72.61555739252168
 20
340.3153104316718
 40
1.63969512394062
 50
84.84185523036271
 51
164.9381082228826
 73
     1
 97
       14
330
206
330
11F
330
1D5
330
205
330
1D6
330
1D7
330
204
330
203
330
202
330
120
330
1D8
330
1D9
330
1DA
330
1DB
 75
     1
 76
     0
 52
45.0
 41
0.1
 77
     0
 78
     1
 53
45.0
 43
0.0
 44
0.0
 45
-0.0707106781186548
 46
0.0707106781186548
 79
     0
 98
        1
 10
0.0
 20
0.0
  0
HATCH
  5
232
330
71
100
AcDbEntity
  8
1
  6
Continuous
 62
     2
100
AcDbHatch
 10
0.0
 20
0.0
 30
0.0
210
0.0
220
0.0
230
1.0
  2
_USER
 70
     0
 71
     1
 91
        1
 92
        1
 93
       14
 72
     2
 10
72.19642954905888
 20
340.4281007937068
 40
1.205656168390944
 50
164.9381082228765
 51
195.0618917770948
 73
     1
 72
     2
 10
72.61555739252168
 20
340.5408911557416
 40
1.63969512393938
 50
195.0618917770886
 51
275.1581447696393
 73
     1
 72
     2
 10
72.32670129778577
 20
343.7407817389632
 40
4.852596863498279
 50
275.1581447696248
 51
285.9799912583529
 73
     1
 72
     1
 10
73.66262921490357
 20
339.0756994331624
 11
73.66262921490357
 21
339.9482164399656
 72
     2
 10
72.4845741728787
 20
341.8385671591154
 40
2.22738400897271
 50
58.06909105003953
 51
71.55192388186698
 73
     0
 72
     2
 10
72.90274190653949
 20
340.5850213830782
 40
0.9059297849848149
 50
71.55192388183985
 51
113.3722778881318
 73
     0
 72
     2
 10
72.74630187383747
 20
340.2230293643682
 40
0.5115800601948034
 50
113.3722778881777
 51
151.4785267423044
 73
     0
 72
     2
 10
73.12365913191778
 20
340.4281007937068
 40
0.9410597353332545
 50
151.4785267422882
 51
208.5214732577331
 73
     0
 72
     2
 10
72.74630187383747
 20
340.6331722230458
 40
0.511580060194904
 50
208.5214732576956
 51
246.6277221118021
 73
     0
 72
     2
 10
72.90274190653949
 20
340.2711802043352
 40
0.9059297849853228
 50
246.627722111871
 51
288.4480761181465
 73
     0
 72
     2
 10
72.4845741728787
 20
339.0176344282986
 40
2.227384008973501
 50
288.4480761181326
 51
301.9309089499589
 73
     0
 72
     1
 10
73.66262921490357
 20
340.9079851474485
 11
73.66262921490357
 21
341.7805021542517
 72
     2
 10
72.32670129778577
 20
337.1154198484509
 40
4.852596863497931
 50
74.02000874164692
 51
84.84185523037502
 73
     1
 72
     2
 10
72.61555739252168
 20
340.3153104316718
 40
1.63969512394062
 50
84.84185523036271
 51
164.9381082228826
 73
     1
 97
       14
330
206
330
11F
330
1D5
330
205
330
1D6
330
1D7
330
204
330
203
330
202
330
120
330
1D8
330
1D9
330
1DA
330
1DB
 75
     1
 76
     0
 52
45.0
 41
0.1
 77
     0
 78
     1
 53
45.0
 43
0.0
 44
0.0
 45
-0.0707106781186548
 46
0.0707106781186548
 79
     0
 98
        1
 10
0.0
 20
0.0
  0
HATCH
  5
233
330
71
100
AcDbEntity
  8
1
  6
Continuous
 62
     2
100
AcDbHatch
 10
0.0
 20
0.0
 30
0.0
210
0.0
220
0.0
230
1.0
  2
_USER
 70
     0
 71
     1
 91
        1
 92
        1
 93
       18
 72
     2
 10
88.7182588717746
 20
340.3153104316718
 40
1.639695123940328
 50
90.0
 51
164.9381082228911
 73
     1
 72
     2
 10
88.29913102831298
 20
340.4281007937068
 40
1.205656168393002
 50
164.9381082229028
 51
195.0618917770946
 73
     1
 72
     2
 10
88.7182588717746
 20
340.5408911557416
 40
1.639695123940434
 50
195.0618917770993
 51
275.1581447696762
 73
     1
 72
     2
 10
88.42940277703877
 20
343.7407817389632
 40
4.852596863498881
 50
275.1581447696363
 51
285.9799912583382
 73
     1
 72
     1
 10
89.7653306941555
 20
339.0756994331617
 11
89.7653306941555
 21
339.9482164399651
 72
     2
 10
88.58727565213158
 20
341.8385671591149
 40
2.227384008972773
 50
58.06909105006066
 51
71.55192388186677
 73
     0
 72
     2
 10
89.00544338579348
 20
340.5850213830782
 40
0.9059297849851757
 50
71.55192388191598
 51
113.3722778881846
 73
     0
 72
     2
 10
88.84900335309038
 20
340.2230293643682
 40
0.5115800601959674
 50
113.3722778881601
 51
151.4785267423246
 73
     0
 72
     2
 10
89.22636061117177
 20
340.4281007937068
 40
0.941059735334906
 50
151.4785267423305
 51
208.5214732576391
 73
     0
 72
     2
 10
88.84900335309038
 20
340.6331722230458
 40
0.5115800601944143
 50
208.5214732575803
 51
250.6628567805147
 73
     0
 72
     2
 10
88.99567335119409
 20
340.2152172426629
 40
0.9545230068260935
 50
250.662856780568
 51
270.0
 73
     0
 72
     1
 10
88.99567335119409
 20
341.169740249489
 11
90.09931265076219
 21
341.169740249489
 72
     1
 10
90.09931265076219
 20
341.169740249489
 11
90.09931265076219
 21
338.9011960318015
 72
     1
 10
90.09931265076219
 20
338.9011960318015
 11
91.2921053529299
 21
338.9011960318015
 72
     1
 10
91.2921053529299
 20
338.9011960318015
 11
91.2921053529299
 21
341.169740249489
 72
     1
 10
91.2921053529299
 20
341.169740249489
 11
92.10320439040328
 21
341.169740249489
 72
     1
 10
92.10320439040328
 20
341.169740249489
 11
92.10320439040328
 21
341.9550055556126
 72
     1
 10
92.10320439040328
 20
341.9550055556126
 11
88.7182588717746
 21
341.9550055556121
 97
       18
330
185
330
184
330
183
330
182
330
187
330
121
330
1FF
330
1E0
330
1FE
330
1E1
330
1FD
330
1FC
330
122
330
1FB
330
1FA
330
1E2
330
1E3
330
186
 75
     1
 76
     0
 52
45.0
 41
0.1
 77
     0
 78
     1
 53
45.0
 43
0.0
 44
0.0
 45
-0.0707106781186548
 46
0.0707106781186548
 79
     0
 98
        1
 10
0.0
 20
0.0
  0
HATCH
  5
234
330
71
100
AcDbEntity
  8
1
  6
Continuous
 62
     2
100
AcDbHatch
 10
0.0
 20
0.0
 30
0.0
210
0.0
220
0.0
230
1.0
  2
_USER
 70
     0
 71
     1
 91
        1
 92
        1
 93
       18
 72
     2
 10
88.7182588717746
 20
340.3153104316718
 40
1.639695123940328
 50
90.0
 51
164.9381082228911
 73
     1
 72
     2
 10
88.29913102831298
 20
340.4281007937068
 40
1.205656168393002
 50
164.9381082229028
 51
195.0618917770946
 73
     1
 72
     2
 10
88.7182588717746
 20
340.5408911557416
 40
1.639695123940434
 50
195.0618917770993
 51
275.1581447696762
 73
     1
 72
     2
 10
88.42940277703877
 20
343.7407817389632
 40
4.852596863498881
 50
275.1581447696363
 51
285.9799912583382
 73
     1
 72
     1
 10
89.7653306941555
 20
339.0756994331617
 11
89.7653306941555
 21
339.9482164399651
 72
     2
 10
88.58727565213158
 20
341.8385671591149
 40
2.227384008972773
 50
58.06909105006066
 51
71.55192388186677
 73
     0
 72
     2
 10
89.00544338579348
 20
340.5850213830782
 40
0.9059297849851757
 50
71.55192388191598
 51
113.3722778881846
 73
     0
 72
     2
 10
88.84900335309038
 20
340.2230293643682
 40
0.5115800601959674
 50
113.3722778881601
 51
151.4785267423246
 73
     0
 72
     2
 10
89.22636061117177
 20
340.4281007937068
 40
0.941059735334906
 50
151.4785267423305
 51
208.5214732576391
 73
     0
 72
     2
 10
88.84900335309038
 20
340.6331722230458
 40
0.5115800601944143
 50
208.5214732575803
 51
250.6628567805147
 73
     0
 72
     2
 10
88.99567335119409
 20
340.2152172426629
 40
0.9545230068260935
 50
250.662856780568
 51
270.0
 73
     0
 72
     1
 10
88.99567335119409
 20
341.169740249489
 11
90.09931265076219
 21
341.169740249489
 72
     1
 10
90.09931265076219
 20
341.169740249489
 11
90.09931265076219
 21
338.9011960318015
 72
     1
 10
90.09931265076219
 20
338.9011960318015
 11
91.2921053529299
 21
338.9011960318015
 72
     1
 10
91.2921053529299
 20
338.9011960318015
 11
91.2921053529299
 21
341.169740249489
 72
     1
 10
91.2921053529299
 20
341.169740249489
 11
92.10320439040328
 21
341.169740249489
 72
     1
 10
92.10320439040328
 20
341.169740249489
 11
92.10320439040328
 21
341.9550055556126
 72
     1
 10
92.10320439040328
 20
341.9550055556126
 11
88.7182588717746
 21
341.9550055556121
 97
       18
330
185
330
184
330
183
330
182
330
187
330
121
330
1FF
330
1E0
330
1FE
330
1E1
330
1FD
330
1FC
330
122
330
1FB
330
1FA
330
1E2
330
1E3
330
186
 75
     1
 76
     0
 52
45.0
 41
0.1
 77
     0
 78
     1
 53
45.0
 43
0.0
 44
0.0
 45
-0.0707106781186548
 46
0.0707106781186548
 79
     0
 98
        1
 10
0.0
 20
0.0
  0
HATCH
  5
235
330
71
100
AcDbEntity
  8
1
  6
Continuous
 62
     2
100
AcDbHatch
 10
0.0
 20
0.0
 30
0.0
210
0.0
220
0.0
230
1.0
  2
_USER
 70
     0
 71
     1
 91
        4
 92
        1
 93
        8
 72
     2
 10
64.61609977508158
 20
344.889951416385
 40
0.4242446153838273
 50
90.0
 51
180.0
 73
     1
 72
     1
 10
64.19185515969878
 20
344.889951416385
 11
64.19185515969878
 21
339.3254406471848
 72
     2
 10
64.61609977508158
 20
339.3254406471848
 40
0.4242446153828041
 50
180.0
 51
270.0
 73
     1
 72
     1
 10
64.61609977508158
 20
338.9011960318015
 11
70.08941186579838
 21
338.9011960318015
 72
     2
 10
70.08941186579838
 20
339.3254406471848
 40
0.4242446153833157
 50
270.0
 51
360.0
 73
     1
 72
     1
 10
70.51365648118227
 20
339.3254406471848
 11
70.51365648118227
 21
344.889951416385
 72
     2
 10
70.08941186579838
 20
344.889951416385
 40
0.4242446153838841
 50
0.0
 51
90.0
 73
     1
 72
     1
 10
70.08941186579838
 20
345.3141960317688
 11
64.61609977508158
 21
345.3141960317688
 97
        8
330
1F3
330
150
330
1F2
330
151
330
1E9
330
14E
330
1F4
330
14F
 92
       16
 93
        1
 72
     2
 10
67.23568542559909
 20
342.5710691880295
 40
0.4709789327785074
 50
0.0
 51
360.0
 73
     1
 97
        1
330
207
 92
       16
 93
        8
 72
     2
 10
67.25950044027189
 20
342.5710691880295
 40
0.9118481501444847
 50
295.3740086781757
 51
424.6259913218075
 73
     1
 72
     2
 10
67.78554313835977
 20
343.6802107879973
 40
0.315716923076792
 50
115.3740086783563
 51
180.0
 73
     0
 72
     1
 10
67.46982621528298
 20
343.6802107879973
 11
67.46982621528298
 21
344.2857460765041
 72
     2
 10
67.78554313835977
 20
344.2857460765041
 40
0.3157169230760711
 50
180.0
 51
269.8110329574541
 73
     0
 72
     2
 10
67.79115927366979
 20
342.5829111289349
 40
2.018561131933266
 50
269.8110329575858
 51
450.1889670424142
 73
     0
 72
     2
 10
67.78554313835977
 20
340.880076181366
 40
0.315716923076792
 50
90.1889670425458
 51
180.0
 73
     0
 72
     1
 10
67.46982621528298
 20
340.880076181366
 11
67.46982621528298
 21
341.461927588061
 72
     2
 10
67.78554313835977
 20
341.461927588061
 40
0.3157169230766355
 50
180.0
 51
244.625991321657
 73
     0
 97
        8
330
201
330
1DD
330
189
330
200
330
1DE
330
1DF
330
188
330
1DC
 92
       16
 93
       12
 72
     1
 10
65.20999445182807
 20
339.6137515873584
 11
66.68582771283769
 21
339.6137515873584
 72
     2
 10
66.68582771283769
 20
339.9294685104351
 40
0.3157169230766499
 50
270.0
 51
360.0
 73
     1
 72
     1
 10
67.00154463591429
 20
339.9294685104351
 11
67.00154463591429
 21
341.4602394419667
 72
     2
 10
66.68582771283769
 20
341.4602394419667
 40
0.315716923076593
 50
0.0
 51
64.80558935146468
 73
     1
 72
     2
 10
67.20841216041268
 20
342.5710691880295
 40
0.9118975235575889
 50
115.1944106485122
 51
244.805589351471
 73
     0
 72
     2
 10
66.68582771283769
 20
343.6818989340917
 40
0.3157169230761203
 50
295.1944106485397
 51
360.0
 73
     1
 72
     1
 10
67.00154463591429
 20
343.6818989340917
 11
67.00154463591429
 21
344.2859235531522
 72
     2
 10
66.68582771283769
 20
344.2859235531522
 40
0.315716923076593
 50
0.0
 51
90.0
 73
     1
 72
     1
 10
66.68582771283769
 20
344.6016404762283
 11
65.20999445182807
 21
344.6016404762283
 72
     2
 10
65.20999445182807
 20
344.2859235531522
 40
0.3157169230760815
 50
90.0
 51
180.0
 73
     1
 72
     1
 10
64.89427752875238
 20
344.2859235531522
 11
64.89427752875238
 21
339.9294685104351
 72
     2
 10
65.20999445182807
 20
339.9294685104351
 40
0.3157169230756836
 50
180.0
 51
270.0
 73
     1
 97
       12
330
155
330
1E6
330
154
330
1F7
330
153
330
1F6
330
1E7
330
1E8
330
152
330
1F5
330
14D
330
1F8
 75
     1
 76
     0
 52
45.0
 41
0.1
 77
     0
 78
     1
 53
45.0
 43
0.0
 44
0.0
 45
-0.0707106781186548
 46
0.0707106781186548
 79
     0
 98
        1
 10
0.0
 20
0.0
  0
HATCH
  5
236
330
71
100
AcDbEntity
  8
1
  6
Continuous
 62
     2
100
AcDbHatch
 10
0.0
 20
0.0
 30
0.0
210
0.0
220
0.0
230
1.0
  2
_USER
 70
     0
 71
     1
 91
        4
 92
        1
 93
        8
 72
     2
 10
64.61609977508158
 20
344.889951416385
 40
0.4242446153838273
 50
90.0
 51
180.0
 73
     1
 72
     1
 10
64.19185515969878
 20
344.889951416385
 11
64.19185515969878
 21
339.3254406471848
 72
     2
 10
64.61609977508158
 20
339.3254406471848
 40
0.4242446153828041
 50
180.0
 51
270.0
 73
     1
 72
     1
 10
64.61609977508158
 20
338.9011960318015
 11
70.08941186579838
 21
338.9011960318015
 72
     2
 10
70.08941186579838
 20
339.3254406471848
 40
0.4242446153833157
 50
270.0
 51
360.0
 73
     1
 72
     1
 10
70.51365648118227
 20
339.3254406471848
 11
70.51365648118227
 21
344.889951416385
 72
     2
 10
70.08941186579838
 20
344.889951416385
 40
0.4242446153838841
 50
0.0
 51
90.0
 73
     1
 72
     1
 10
70.08941186579838
 20
345.3141960317688
 11
64.61609977508158
 21
345.3141960317688
 97
        8
330
1F3
330
150
330
1F2
330
151
330
1E9
330
14E
330
1F4
330
14F
 92
       16
 93
        1
 72
     2
 10
67.23568542559909
 20
342.5710691880295
 40
0.4709789327785074
 50
0.0
 51
360.0
 73
     1
 97
        1
330
207
 92
       16
 93
        8
 72
     2
 10
67.25950044027189
 20
342.5710691880295
 40
0.9118481501444847
 50
295.3740086781757
 51
424.6259913218075
 73
     1
 72
     2
 10
67.78554313835977
 20
343.6802107879973
 40
0.315716923076792
 50
115.3740086783563
 51
180.0
 73
     0
 72
     1
 10
67.46982621528298
 20
343.6802107879973
 11
67.46982621528298
 21
344.2857460765041
 72
     2
 10
67.78554313835977
 20
344.2857460765041
 40
0.3157169230760711
 50
180.0
 51
269.8110329574541
 73
     0
 72
     2
 10
67.79115927366979
 20
342.5829111289349
 40
2.018561131933266
 50
269.8110329575858
 51
450.1889670424142
 73
     0
 72
     2
 10
67.78554313835977
 20
340.880076181366
 40
0.315716923076792
 50
90.1889670425458
 51
180.0
 73
     0
 72
     1
 10
67.46982621528298
 20
340.880076181366
 11
67.46982621528298
 21
341.461927588061
 72
     2
 10
67.78554313835977
 20
341.461927588061
 40
0.3157169230766355
 50
180.0
 51
244.625991321657
 73
     0
 97
        8
330
201
330
1DD
330
189
330
200
330
1DE
330
1DF
330
188
330
1DC
 92
       16
 93
       12
 72
     1
 10
65.20999445182807
 20
339.6137515873584
 11
66.68582771283769
 21
339.6137515873584
 72
     2
 10
66.68582771283769
 20
339.9294685104351
 40
0.3157169230766499
 50
270.0
 51
360.0
 73
     1
 72
     1
 10
67.00154463591429
 20
339.9294685104351
 11
67.00154463591429
 21
341.4602394419667
 72
     2
 10
66.68582771283769
 20
341.4602394419667
 40
0.315716923076593
 50
0.0
 51
64.80558935146468
 73
     1
 72
     2
 10
67.20841216041268
 20
342.5710691880295
 40
0.9118975235575889
 50
115.1944106485122
 51
244.805589351471
 73
     0
 72
     2
 10
66.68582771283769
 20
343.6818989340917
 40
0.3157169230761203
 50
295.1944106485397
 51
360.0
 73
     1
 72
     1
 10
67.00154463591429
 20
343.6818989340917
 11
67.00154463591429
 21
344.2859235531522
 72
     2
 10
66.68582771283769
 20
344.2859235531522
 40
0.315716923076593
 50
0.0
 51
90.0
 73
     1
 72
     1
 10
66.68582771283769
 20
344.6016404762283
 11
65.20999445182807
 21
344.6016404762283
 72
     2
 10
65.20999445182807
 20
344.2859235531522
 40
0.3157169230760815
 50
90.0
 51
180.0
 73
     1
 72
     1
 10
64.89427752875238
 20
344.2859235531522
 11
64.89427752875238
 21
339.9294685104351
 72
     2
 10
65.20999445182807
 20
339.9294685104351
 40
0.3157169230756836
 50
180.0
 51
270.0
 73
     1
 97
       12
330
155
330
1E6
330
154
330
1F7
330
153
330
1F6
330
1E7
330
1E8
330
152
330
1F5
330
14D
330
1F8
 75
     1
 76
     0
 52
45.0
 41
0.1
 77
     0
 78
     1
 53
45.0
 43
0.0
 44
0.0
 45
-0.0707106781186548
 46
0.0707106781186548
 79
     0
 98
        1
 10
0.0
 20
0.0
  0
HATCH
  5
237
330
71
100
AcDbEntity
  8
1
  6
Continuous
 62
     2
100
AcDbHatch
 10
0.0
 20
0.0
 30
0.0
210
0.0
220
0.0
230
1.0
  2
_USER
 70
     0
 71
     1
 91
        2
 92
        1
 93
       12
 72
     2
 10
79.29126377907087
 20
343.7872912698811
 40
1.526904761905882
 50
90.0
 51
270.0
 73
     1
 72
     1
 10
79.29126377907087
 20
342.2603865079758
 11
82.44158350285187
 21
342.2603865079758
 72
     1
 10
82.44158350285187
 20
342.2603865079758
 11
82.44158350285187
 21
342.9584001134183
 72
     1
 10
82.44158350285187
 20
342.9584001134183
 11
81.10565567642419
 21
342.9584001134183
 72
     1
 10
81.10565567642419
 20
342.9584001134183
 11
81.10565567642419
 21
343.43828446716
 72
     1
 10
81.10565567642419
 20
343.43828446716
 11
82.44158350285187
 21
343.43828446716
 72
     1
 10
82.44158350285187
 20
343.43828446716
 11
82.44158350285187
 21
344.1362980726022
 72
     1
 10
82.44158350285187
 20
344.1362980726022
 11
81.10565567642419
 21
344.1362980726022
 72
     1
 10
81.10565567642419
 20
344.1362980726022
 11
81.10565567642419
 21
344.616182426344
 72
     1
 10
81.10565567642419
 20
344.616182426344
 11
82.44158350285187
 21
344.616182426344
 72
     1
 10
82.44158350285187
 20
344.616182426344
 11
82.44158350285187
 21
345.314196031787
 72
     1
 10
82.44158350285187
 20
345.314196031787
 11
79.29126377907087
 21
345.314196031787
 97
       12
330
144
330
13E
330
165
330
164
330
163
330
162
330
13F
330
140
330
141
330
142
330
1E4
330
143
 92
       16
 93
        4
 72
     2
 10
79.70727582558237
 20
343.7872912698811
 40
0.7717997786796724
 50
141.8795802028404
 51
218.1204197971629
 73
     1
 72
     2
 10
79.50753578923607
 20
343.6305600917607
 40
0.5179085730135072
 50
218.120419797161
 51
321.8795802028467
 73
     1
 72
     2
 10
79.30779575288989
 20
343.7872912698811
 40
0.7717997786797075
 50
321.8795802028371
 51
398.1204197971595
 73
     1
 72
     2
 10
79.50753578923607
 20
343.9440224480015
 40
0.5179085730135967
 50
38.12041979715324
 51
141.879580202839
 73
     1
 97
        4
330
1F1
330
1F0
330
1EB
330
1EA
 75
     1
 76
     0
 52
45.0
 41
0.1
 77
     0
 78
     1
 53
45.0
 43
0.0
 44
0.0
 45
-0.0707106781186548
 46
0.0707106781186548
 79
     0
 98
        1
 10
0.0
 20
0.0
  0
HATCH
  5
238
330
71
100
AcDbEntity
  8
1
  6
Continuous
 62
     2
100
AcDbHatch
 10
0.0
 20
0.0
 30
0.0
210
0.0
220
0.0
230
1.0
  2
_USER
 70
     0
 71
     1
 91
        2
 92
        1
 93
       12
 72
     2
 10
79.29126377907087
 20
343.7872912698811
 40
1.526904761905882
 50
90.0
 51
270.0
 73
     1
 72
     1
 10
79.29126377907087
 20
342.2603865079758
 11
82.44158350285187
 21
342.2603865079758
 72
     1
 10
82.44158350285187
 20
342.2603865079758
 11
82.44158350285187
 21
342.9584001134183
 72
     1
 10
82.44158350285187
 20
342.9584001134183
 11
81.10565567642419
 21
342.9584001134183
 72
     1
 10
81.10565567642419
 20
342.9584001134183
 11
81.10565567642419
 21
343.43828446716
 72
     1
 10
81.10565567642419
 20
343.43828446716
 11
82.44158350285187
 21
343.43828446716
 72
     1
 10
82.44158350285187
 20
343.43828446716
 11
82.44158350285187
 21
344.1362980726022
 72
     1
 10
82.44158350285187
 20
344.1362980726022
 11
81.10565567642419
 21
344.1362980726022
 72
     1
 10
81.10565567642419
 20
344.1362980726022
 11
81.10565567642419
 21
344.616182426344
 72
     1
 10
81.10565567642419
 20
344.616182426344
 11
82.44158350285187
 21
344.616182426344
 72
     1
 10
82.44158350285187
 20
344.616182426344
 11
82.44158350285187
 21
345.314196031787
 72
     1
 10
82.44158350285187
 20
345.314196031787
 11
79.29126377907087
 21
345.314196031787
 97
       12
330
144
330
13E
330
165
330
164
330
163
330
162
330
13F
330
140
330
141
330
142
330
1E4
330
143
 92
       16
 93
        4
 72
     2
 10
79.70727582558237
 20
343.7872912698811
 40
0.7717997786796724
 50
141.8795802028404
 51
218.1204197971629
 73
     1
 72
     2
 10
79.50753578923607
 20
343.6305600917607
 40
0.5179085730135072
 50
218.120419797161
 51
321.8795802028467
 73
     1
 72
     2
 10
79.30779575288989
 20
343.7872912698811
 40
0.7717997786797075
 50
321.8795802028371
 51
398.1204197971595
 73
     1
 72
     2
 10
79.50753578923607
 20
343.9440224480015
 40
0.5179085730135967
 50
38.12041979715324
 51
141.879580202839
 73
     1
 97
        4
330
1F1
330
1F0
330
1EB
330
1EA
 75
     1
 76
     0
 52
45.0
 41
0.1
 77
     0
 78
     1
 53
45.0
 43
0.0
 44
0.0
 45
-0.0707106781186548
 46
0.0707106781186548
 79
     0
 98
        1
 10
0.0
 20
0.0
  0
HATCH
  5
239
330
71
100
AcDbEntity
  8
1
  6
Continuous
 62
     2
100
AcDbHatch
 10
0.0
 20
0.0
 30
0.0
210
0.0
220
0.0
230
1.0
  2
_USER
 70
     0
 71
     1
 91
        2
 92
        1
 93
        4
 72
     2
 10
75.26564841660928
 20
340.4281007937068
 40
1.458034083651515
 50
117.5481481756619
 51
242.451851824337
 73
     1
 72
     2
 10
75.54658830844258
 20
340.96667580401
 40
2.065479772208382
 50
242.4518518243383
 51
297.5481481756889
 73
     1
 72
     2
 10
75.82752820027588
 20
340.4281007937068
 40
1.458034083651977
 50
297.5481481757016
 51
422.4518518242994
 73
     1
 72
     2
 10
75.54658830844258
 20
339.889525783404
 40
2.065479772208593
 50
62.45185182430674
 51
117.548148175666
 73
     1
 97
        4
330
1EF
330
1EC
330
1EE
330
1ED
 92
       16
 93
        4
 72
     2
 10
75.54658830844258
 20
340.5848319718273
 40
0.5179085730132998
 50
38.12041979714704
 51
141.8795802028588
 73
     1
 72
     2
 10
75.74632834478868
 20
340.4281007937068
 40
0.7717997786794808
 50
141.8795802028346
 51
218.1204197971687
 73
     1
 72
     2
 10
75.54658830844258
 20
340.2713696155868
 40
0.5179085730137529
 50
218.1204197971956
 51
321.8795802027985
 73
     1
 72
     2
 10
75.34684827209617
 20
340.4281007937068
 40
0.7717997786796947
 50
321.8795802028417
 51
398.120419797155
 73
     1
 97
        4
330
1D2
330
1D3
330
1D4
330
1D1
 75
     1
 76
     0
 52
45.0
 41
0.1
 77
     0
 78
     1
 53
45.0
 43
0.0
 44
0.0
 45
-0.0707106781186548
 46
0.0707106781186548
 79
     0
 98
        1
 10
0.0
 20
0.0
  0
HATCH
  5
23A
330
71
100
AcDbEntity
  8
1
  6
Continuous
 62
     2
100
AcDbHatch
 10
0.0
 20
0.0
 30
0.0
210
0.0
220
0.0
230
1.0
  2
_USER
 70
     0
 71
     1
 91
        2
 92
        1
 93
        4
 72
     2
 10
75.26564841660928
 20
340.4281007937068
 40
1.458034083651515
 50
117.5481481756619
 51
242.451851824337
 73
     1
 72
     2
 10
75.54658830844258
 20
340.96667580401
 40
2.065479772208382
 50
242.4518518243383
 51
297.5481481756889
 73
     1
 72
     2
 10
75.82752820027588
 20
340.4281007937068
 40
1.458034083651977
 50
297.5481481757016
 51
422.4518518242994
 73
     1
 72
     2
 10
75.54658830844258
 20
339.889525783404
 40
2.065479772208593
 50
62.45185182430674
 51
117.548148175666
 73
     1
 97
        4
330
1EF
330
1EC
330
1EE
330
1ED
 92
       16
 93
        4
 72
     2
 10
75.54658830844258
 20
340.5848319718273
 40
0.5179085730132998
 50
38.12041979714704
 51
141.8795802028588
 73
     1
 72
     2
 10
75.74632834478868
 20
340.4281007937068
 40
0.7717997786794808
 50
141.8795802028346
 51
218.1204197971687
 73
     1
 72
     2
 10
75.54658830844258
 20
340.2713696155868
 40
0.5179085730137529
 50
218.1204197971956
 51
321.8795802027985
 73
     1
 72
     2
 10
75.34684827209617
 20
340.4281007937068
 40
0.7717997786796947
 50
321.8795802028417
 51
398.120419797155
 73
     1
 97
        4
330
1D2
330
1D3
330
1D4
330
1D1
 75
     1
 76
     0
 52
45.0
 41
0.1
 77
     0
 78
     1
 53
45.0
 43
0.0
 44
0.0
 45
-0.0707106781186548
 46
0.0707106781186548
 79
     0
 98
        1
 10
0.0
 20
0.0
  0
HATCH
  5
23B
330
71
100
AcDbEntity
  8
1
  6
Continuous
 62
     2
100
AcDbHatch
 10
0.0
 20
0.0
 30
0.0
210
0.0
220
0.0
230
1.0
  2
_USER
 70
     0
 71
     1
 91
        2
 92
        1
 93
        6
 72
     1
 10
70.99077356204907
 20
345.314196031787
 11
70.99077356204907
 21
342.2603865079758
 72
     1
 10
70.99077356204907
 20
342.2603865079758
 11
72.23127797230319
 21
342.2603865079758
 72
     1
 10
72.23127797230319
 20
342.2603865079758
 11
72.23127797230319
 21
343.2034647491196
 72
     1
 10
72.23127797230319
 20
343.2034647491196
 11
72.99004556008347
 21
343.2034647491196
 72
     2
 10
72.99004556008347
 20
344.2588303904533
 40
1.055365641333708
 50
270.0
 51
450.0
 73
     1
 72
     1
 10
72.99004556008347
 20
345.314196031787
 11
70.99077356204907
 21
345.314196031787
 97
        6
330
1F9
330
156
330
14C
330
14B
330
158
330
157
 92
       16
 93
        4
 72
     1
 10
72.54857303384509
 20
344.6510901863469
 11
72.23127797230319
 21
344.6510901863469
 72
     1
 10
72.23127797230319
 20
344.6510901863469
 11
72.23127797230319
 21
343.9453625370047
 72
     1
 10
72.23127797230319
 20
343.9453625370047
 11
72.54857303384509
 21
343.9453625370047
 72
     2
 10
72.54857303384509
 20
344.2982263616758
 40
0.3528638246710898
 50
270.0
 51
450.0
 73
     1
 97
        4
330
159
330
14A
330
15A
330
1E5
 75
     1
 76
     0
 52
45.0
 41
0.1
 77
     0
 78
     1
 53
45.0
 43
0.0
 44
0.0
 45
-0.0707106781186548
 46
0.0707106781186548
 79
     0
 98
        1
 10
0.0
 20
0.0
  0
HATCH
  5
23C
330
71
100
AcDbEntity
  8
1
  6
Continuous
 62
     2
100
AcDbHatch
 10
0.0
 20
0.0
 30
0.0
210
0.0
220
0.0
230
1.0
  2
_USER
 70
     0
 71
     1
 91
        2
 92
        1
 93
        6
 72
     1
 10
70.99077356204907
 20
345.314196031787
 11
70.99077356204907
 21
342.2603865079758
 72
     1
 10
70.99077356204907
 20
342.2603865079758
 11
72.23127797230319
 21
342.2603865079758
 72
     1
 10
72.23127797230319
 20
342.2603865079758
 11
72.23127797230319
 21
343.2034647491196
 72
     1
 10
72.23127797230319
 20
343.2034647491196
 11
72.99004556008347
 21
343.2034647491196
 72
     2
 10
72.99004556008347
 20
344.2588303904533
 40
1.055365641333708
 50
270.0
 51
450.0
 73
     1
 72
     1
 10
72.99004556008347
 20
345.314196031787
 11
70.99077356204907
 21
345.314196031787
 97
        6
330
1F9
330
156
330
14C
330
14B
330
158
330
157
 92
       16
 93
        4
 72
     1
 10
72.54857303384509
 20
344.6510901863469
 11
72.23127797230319
 21
344.6510901863469
 72
     1
 10
72.23127797230319
 20
344.6510901863469
 11
72.23127797230319
 21
343.9453625370047
 72
     1
 10
72.23127797230319
 20
343.9453625370047
 11
72.54857303384509
 21
343.9453625370047
 72
     2
 10
72.54857303384509
 20
344.2982263616758
 40
0.3528638246710898
 50
270.0
 51
450.0
 73
     1
 97
        4
330
159
330
14A
330
15A
330
1E5
 75
     1
 76
     0
 52
45.0
 41
0.1
 77
     0
 78
     1
 53
45.0
 43
0.0
 44
0.0
 45
-0.0707106781186548
 46
0.0707106781186548
 79
     0
 98
        1
 10
0.0
 20
0.0
  0
HATCH
  5
23D
330
71
100
AcDbEntity
  8
1
  6
Continuous
 62
     2
100
AcDbHatch
 10
0.0
 20
0.0
 30
0.0
210
0.0
220
0.0
230
1.0
  2
_USER
 70
     0
 71
     1
 91
        1
 92
        1
 93
       12
 72
     1
 10
90.60505675648227
 20
345.314196031787
 11
92.00778097422949
 21
345.314196031787
 72
     1
 10
92.00778097422949
 20
345.314196031787
 11
90.70525134346298
 21
343.8412455017508
 72
     1
 10
90.70525134346298
 20
343.8412455017508
 11
92.10320439040328
 21
342.2603865079758
 72
     1
 10
92.10320439040328
 20
342.2603865079758
 11
90.70048017265498
 21
342.2603865079758
 72
     1
 10
90.70048017265498
 20
342.2603865079758
 11
90.00388923458948
 21
343.0481182932695
 72
     1
 10
90.00388923458948
 20
343.0481182932695
 11
89.30729829652378
 21
342.2603865079758
 72
     1
 10
89.30729829652378
 20
342.2603865079758
 11
87.90457407877557
 21
342.2603865079758
 72
     1
 10
87.90457407877557
 20
342.2603865079758
 11
89.30252712571587
 21
343.8412455017508
 72
     1
 10
89.30252712571587
 20
343.8412455017508
 11
87.99999749494839
 21
345.314196031787
 72
     1
 10
87.99999749494839
 20
345.314196031787
 11
89.40272171269768
 21
345.314196031787
 72
     1
 10
89.40272171269768
 20
345.314196031787
 11
90.00388923458948
 21
344.6343727102315
 72
     1
 10
90.00388923458948
 20
344.6343727102315
 11
90.60505675648227
 21
345.314196031787
 97
       12
330
125
330
17E
330
17D
330
17C
330
17B
330
126
330
127
330
123
330
124
330
181
330
180
330
17F
 75
     1
 76
     0
 52
45.0
 41
0.1
 77
     0
 78
     1
 53
45.0
 43
0.0
 44
0.0
 45
-0.0707106781186548
 46
0.0707106781186548
 79
     0
 98
        1
 10
0.0
 20
0.0
  0
HATCH
  5
23E
330
71
100
AcDbEntity
  8
1
  6
Continuous
 62
     2
100
AcDbHatch
 10
0.0
 20
0.0
 30
0.0
210
0.0
220
0.0
230
1.0
  2
_USER
 70
     0
 71
     1
 91
        1
 92
        1
 93
       12
 72
     1
 10
90.60505675648227
 20
345.314196031787
 11
92.00778097422949
 21
345.314196031787
 72
     1
 10
92.00778097422949
 20
345.314196031787
 11
90.70525134346298
 21
343.8412455017508
 72
     1
 10
90.70525134346298
 20
343.8412455017508
 11
92.10320439040328
 21
342.2603865079758
 72
     1
 10
92.10320439040328
 20
342.2603865079758
 11
90.70048017265498
 21
342.2603865079758
 72
     1
 10
90.70048017265498
 20
342.2603865079758
 11
90.00388923458948
 21
343.0481182932695
 72
     1
 10
90.00388923458948
 20
343.0481182932695
 11
89.30729829652378
 21
342.2603865079758
 72
     1
 10
89.30729829652378
 20
342.2603865079758
 11
87.90457407877557
 21
342.2603865079758
 72
     1
 10
87.90457407877557
 20
342.2603865079758
 11
89.30252712571587
 21
343.8412455017508
 72
     1
 10
89.30252712571587
 20
343.8412455017508
 11
87.99999749494839
 21
345.314196031787
 72
     1
 10
87.99999749494839
 20
345.314196031787
 11
89.40272171269768
 21
345.314196031787
 72
     1
 10
89.40272171269768
 20
345.314196031787
 11
90.00388923458948
 21
344.6343727102315
 72
     1
 10
90.00388923458948
 20
344.6343727102315
 11
90.60505675648227
 21
345.314196031787
 97
       12
330
125
330
17E
330
17D
330
17C
330
17B
330
126
330
127
330
123
330
124
330
181
330
180
330
17F
 75
     1
 76
     0
 52
45.0
 41
0.1
 77
     0
 78
     1
 53
45.0
 43
0.0
 44
0.0
 45
-0.0707106781186548
 46
0.0707106781186548
 79
     0
 98
        1
 10
0.0
 20
0.0
  0
HATCH
  5
23F
330
71
100
AcDbEntity
  8
1
  6
Continuous
 62
     2
100
AcDbHatch
 10
0.0
 20
0.0
 30
0.0
210
0.0
220
0.0
230
1.0
  2
_USER
 70
     0
 71
     1
 91
        1
 92
        1
 93
        4
 72
     1
 10
87.78529480855869
 20
345.314196031787
 11
87.78529480855869
 21
342.2603865079758
 72
     1
 10
87.78529480855869
 20
342.2603865079758
 11
86.54479039830579
 21
342.2603865079758
 72
     1
 10
86.54479039830579
 20
342.2603865079758
 11
86.54479039830579
 21
345.314196031787
 72
     1
 10
86.54479039830579
 20
345.314196031787
 11
87.78529480855869
 21
345.314196031787
 97
        4
330
179
330
128
330
178
330
17A
 75
     1
 76
     0
 52
45.0
 41
0.1
 77
     0
 78
     1
 53
45.0
 43
0.0
 44
0.0
 45
-0.0707106781186548
 46
0.0707106781186548
 79
     0
 98
        1
 10
0.0
 20
0.0
  0
HATCH
  5
240
330
71
100
AcDbEntity
  8
1
  6
Continuous
 62
     2
100
AcDbHatch
 10
0.0
 20
0.0
 30
0.0
210
0.0
220
0.0
230
1.0
  2
_USER
 70
     0
 71
     1
 91
        1
 92
        1
 93
        4
 72
     1
 10
87.78529480855869
 20
345.314196031787
 11
87.78529480855869
 21
342.2603865079758
 72
     1
 10
87.78529480855869
 20
342.2603865079758
 11
86.54479039830579
 21
342.2603865079758
 72
     1
 10
86.54479039830579
 20
342.2603865079758
 11
86.54479039830579
 21
345.314196031787
 72
     1
 10
86.54479039830579
 20
345.314196031787
 11
87.78529480855869
 21
345.314196031787
 97
        4
330
179
330
128
330
178
330
17A
 75
     1
 76
     0
 52
45.0
 41
0.1
 77
     0
 78
     1
 53
45.0
 43
0.0
 44
0.0
 45
-0.0707106781186548
 46
0.0707106781186548
 79
     0
 98
        1
 10
0.0
 20
0.0
  0
HATCH
  5
241
330
71
100
AcDbEntity
  8
1
  6
Continuous
 62
     2
100
AcDbHatch
 10
0.0
 20
0.0
 30
0.0
210
0.0
220
0.0
230
1.0
  2
_USER
 70
     0
 71
     1
 91
        2
 92
        1
 93
        8
 72
     1
 10
87.39485080502669
 20
338.9011960318015
 11
86.15434639477277
 21
338.9011960318015
 72
     1
 10
86.15434639477277
 20
338.9011960318015
 11
85.94286634129699
 21
339.4421565760193
 72
     1
 10
85.94286634129699
 20
339.4421565760193
 11
84.81042476462318
 21
339.4421565760193
 72
     1
 10
84.81042476462318
 20
339.4421565760193
 11
84.59894471114737
 21
338.9011960318015
 72
     1
 10
84.59894471114737
 20
338.9011960318015
 11
83.35844030089439
 21
338.9011960318015
 72
     1
 10
83.35844030089439
 20
338.9011960318015
 11
84.7563933478337
 21
341.9550055556126
 72
     1
 10
84.7563933478337
 20
341.9550055556126
 11
85.99689775808639
 21
341.9550055556126
 72
     1
 10
85.99689775808639
 20
341.9550055556126
 11
87.39485080502669
 21
338.9011960318015
 97
        8
330
174
330
12E
330
173
330
176
330
12B
330
175
330
12C
330
12D
 92
       16
 93
        3
 72
     1
 10
85.07648031576818
 20
340.122719841326
 11
85.67681079015068
 21
340.122719841326
 72
     1
 10
85.67681079015068
 20
340.122719841326
 11
85.37664555296058
 21
340.8905348073126
 72
     1
 10
85.37664555296058
 20
340.8905348073126
 11
85.07648031576818
 21
340.122719841326
 97
        3
330
12A
330
129
330
177
 75
     1
 76
     0
 52
45.0
 41
0.1
 77
     0
 78
     1
 53
45.0
 43
0.0
 44
0.0
 45
-0.0707106781186548
 46
0.0707106781186548
 79
     0
 98
        1
 10
0.0
 20
0.0
  0
HATCH
  5
242
330
71
100
AcDbEntity
  8
1
  6
Continuous
 62
     2
100
AcDbHatch
 10
0.0
 20
0.0
 30
0.0
210
0.0
220
0.0
230
1.0
  2
_USER
 70
     0
 71
     1
 91
        2
 92
        1
 93
        8
 72
     1
 10
87.39485080502669
 20
338.9011960318015
 11
86.15434639477277
 21
338.9011960318015
 72
     1
 10
86.15434639477277
 20
338.9011960318015
 11
85.94286634129699
 21
339.4421565760193
 72
     1
 10
85.94286634129699
 20
339.4421565760193
 11
84.81042476462318
 21
339.4421565760193
 72
     1
 10
84.81042476462318
 20
339.4421565760193
 11
84.59894471114737
 21
338.9011960318015
 72
     1
 10
84.59894471114737
 20
338.9011960318015
 11
83.35844030089439
 21
338.9011960318015
 72
     1
 10
83.35844030089439
 20
338.9011960318015
 11
84.7563933478337
 21
341.9550055556126
 72
     1
 10
84.7563933478337
 20
341.9550055556126
 11
85.99689775808639
 21
341.9550055556126
 72
     1
 10
85.99689775808639
 20
341.9550055556126
 11
87.39485080502669
 21
338.9011960318015
 97
        8
330
174
330
12E
330
173
330
176
330
12B
330
175
330
12C
330
12D
 92
       16
 93
        3
 72
     1
 10
85.07648031576818
 20
340.122719841326
 11
85.67681079015068
 21
340.122719841326
 72
     1
 10
85.67681079015068
 20
340.122719841326
 11
85.37664555296058
 21
340.8905348073126
 72
     1
 10
85.37664555296058
 20
340.8905348073126
 11
85.07648031576818
 21
340.122719841326
 97
        3
330
12A
330
129
330
177
 75
     1
 76
     0
 52
45.0
 41
0.1
 77
     0
 78
     1
 53
45.0
 43
0.0
 44
0.0
 45
-0.0707106781186548
 46
0.0707106781186548
 79
     0
 98
        1
 10
0.0
 20
0.0
  0
HATCH
  5
243
330
71
100
AcDbEntity
  8
1
  6
Continuous
 62
     2
100
AcDbHatch
 10
0.0
 20
0.0
 30
0.0
210
0.0
220
0.0
230
1.0
  2
_USER
 70
     0
 71
     1
 91
        1
 92
        1
 93
        8
 72
     1
 10
81.20092816171217
 20
341.9550055556126
 11
81.20092816171217
 21
341.169740249489
 72
     1
 10
81.20092816171217
 20
341.169740249489
 11
82.01202719918678
 21
341.169740249489
 72
     1
 10
82.01202719918678
 20
341.169740249489
 11
82.01202719918678
 21
338.9011960318015
 72
     1
 10
82.01202719918678
 20
338.9011960318015
 11
83.20481990135329
 21
338.9011960318015
 72
     1
 10
83.20481990135329
 20
338.9011960318015
 11
83.20481990135329
 21
341.169740249489
 72
     1
 10
83.20481990135329
 20
341.169740249489
 11
84.01591893882579
 21
341.169740249489
 72
     1
 10
84.01591893882579
 20
341.169740249489
 11
84.01591893882579
 21
341.9550055556126
 72
     1
 10
84.01591893882579
 20
341.9550055556126
 11
81.20092816171217
 21
341.9550055556126
 97
        8
330
170
330
16F
330
16E
330
12F
330
130
330
172
330
131
330
171
 75
     1
 76
     0
 52
45.0
 41
0.1
 77
     0
 78
     1
 53
45.0
 43
0.0
 44
0.0
 45
-0.0707106781186548
 46
0.0707106781186548
 79
     0
 98
        1
 10
0.0
 20
0.0
  0
HATCH
  5
244
330
71
100
AcDbEntity
  8
1
  6
Continuous
 62
     2
100
AcDbHatch
 10
0.0
 20
0.0
 30
0.0
210
0.0
220
0.0
230
1.0
  2
_USER
 70
     0
 71
     1
 91
        1
 92
        1
 93
        8
 72
     1
 10
81.20092816171217
 20
341.9550055556126
 11
81.20092816171217
 21
341.169740249489
 72
     1
 10
81.20092816171217
 20
341.169740249489
 11
82.01202719918678
 21
341.169740249489
 72
     1
 10
82.01202719918678
 20
341.169740249489
 11
82.01202719918678
 21
338.9011960318015
 72
     1
 10
82.01202719918678
 20
338.9011960318015
 11
83.20481990135329
 21
338.9011960318015
 72
     1
 10
83.20481990135329
 20
338.9011960318015
 11
83.20481990135329
 21
341.169740249489
 72
     1
 10
83.20481990135329
 20
341.169740249489
 11
84.01591893882579
 21
341.169740249489
 72
     1
 10
84.01591893882579
 20
341.169740249489
 11
84.01591893882579
 21
341.9550055556126
 72
     1
 10
84.01591893882579
 20
341.9550055556126
 11
81.20092816171217
 21
341.9550055556126
 97
        8
330
170
330
16F
330
16E
330
12F
330
130
330
172
330
131
330
171
 75
     1
 76
     0
 52
45.0
 41
0.1
 77
     0
 78
     1
 53
45.0
 43
0.0
 44
0.0
 45
-0.0707106781186548
 46
0.0707106781186548
 79
     0
 98
        1
 10
0.0
 20
0.0
  0
HATCH
  5
245
330
71
100
AcDbEntity
  8
1
  6
Continuous
 62
     2
100
AcDbHatch
 10
0.0
 20
0.0
 30
0.0
210
0.0
220
0.0
230
1.0
  2
_USER
 70
     0
 71
     1
 91
        1
 92
        1
 93
       10
 72
     1
 10
83.87293474545129
 20
345.314196031787
 11
82.68014204328477
 21
345.314196031787
 72
     1
 10
82.68014204328477
 20
345.314196031787
 11
82.68014204328477
 21
342.2603865079758
 72
     1
 10
82.68014204328477
 20
342.2603865079758
 11
83.87293474545129
 21
342.2603865079758
 72
     1
 10
83.87293474545129
 20
342.2603865079758
 11
83.87293474545129
 21
343.5691620181805
 72
     1
 10
83.87293474545129
 20
343.5691620181805
 11
85.1134391557053
 21
342.2603865079758
 72
     1
 10
85.1134391557053
 20
342.2603865079758
 11
86.3062318578719
 21
342.2603865079758
 72
     1
 10
86.3062318578719
 20
342.2603865079758
 11
86.3062318578719
 21
345.314196031787
 72
     1
 10
86.3062318578719
 20
345.314196031787
 11
85.1134391557053
 21
345.314196031787
 72
     1
 10
85.1134391557053
 20
345.314196031787
 11
85.1134391557053
 21
344.0054205215818
 72
     1
 10
85.1134391557053
 20
344.0054205215818
 11
83.87293474545129
 21
345.314196031787
 97
       10
330
16A
330
134
330
135
330
136
330
137
330
16D
330
132
330
16C
330
16B
330
133
 75
     1
 76
     0
 52
45.0
 41
0.1
 77
     0
 78
     1
 53
45.0
 43
0.0
 44
0.0
 45
-0.0707106781186548
 46
0.0707106781186548
 79
     0
 98
        1
 10
0.0
 20
0.0
  0
HATCH
  5
246
330
71
100
AcDbEntity
  8
1
  6
Continuous
 62
     2
100
AcDbHatch
 10
0.0
 20
0.0
 30
0.0
210
0.0
220
0.0
230
1.0
  2
_USER
 70
     0
 71
     1
 91
        1
 92
        1
 93
       10
 72
     1
 10
83.87293474545129
 20
345.314196031787
 11
82.68014204328477
 21
345.314196031787
 72
     1
 10
82.68014204328477
 20
345.314196031787
 11
82.68014204328477
 21
342.2603865079758
 72
     1
 10
82.68014204328477
 20
342.2603865079758
 11
83.87293474545129
 21
342.2603865079758
 72
     1
 10
83.87293474545129
 20
342.2603865079758
 11
83.87293474545129
 21
343.5691620181805
 72
     1
 10
83.87293474545129
 20
343.5691620181805
 11
85.1134391557053
 21
342.2603865079758
 72
     1
 10
85.1134391557053
 20
342.2603865079758
 11
86.3062318578719
 21
342.2603865079758
 72
     1
 10
86.3062318578719
 20
342.2603865079758
 11
86.3062318578719
 21
345.314196031787
 72
     1
 10
86.3062318578719
 20
345.314196031787
 11
85.1134391557053
 21
345.314196031787
 72
     1
 10
85.1134391557053
 20
345.314196031787
 11
85.1134391557053
 21
344.0054205215818
 72
     1
 10
85.1134391557053
 20
344.0054205215818
 11
83.87293474545129
 21
345.314196031787
 97
       10
330
16A
330
134
330
135
330
136
330
137
330
16D
330
132
330
16C
330
16B
330
133
 75
     1
 76
     0
 52
45.0
 41
0.1
 77
     0
 78
     1
 53
45.0
 43
0.0
 44
0.0
 45
-0.0707106781186548
 46
0.0707106781186548
 79
     0
 98
        1
 10
0.0
 20
0.0
  0
HATCH
  5
247
330
71
100
AcDbEntity
  8
1
  6
Continuous
 62
     2
100
AcDbHatch
 10
0.0
 20
0.0
 30
0.0
210
0.0
220
0.0
230
1.0
  2
_USER
 70
     0
 71
     1
 91
        1
 92
        1
 93
       10
 72
     1
 10
78.62449592503268
 20
341.9550055556126
 11
77.43170322286508
 21
341.9550055556126
 72
     1
 10
77.43170322286508
 20
341.9550055556126
 11
77.43170322286508
 21
338.9011960318015
 72
     1
 10
77.43170322286508
 20
338.9011960318015
 11
78.62449592503268
 21
338.9011960318015
 72
     1
 10
78.62449592503268
 20
338.9011960318015
 11
78.62449592503268
 21
340.2099715420061
 72
     1
 10
78.62449592503268
 20
340.2099715420061
 11
79.86500033528557
 21
338.9011960318015
 72
     1
 10
79.86500033528557
 20
338.9011960318015
 11
81.05779303745197
 21
338.9011960318015
 72
     1
 10
81.05779303745197
 20
338.9011960318015
 11
81.05779303745197
 21
341.9550055556126
 72
     1
 10
81.05779303745197
 20
341.9550055556126
 11
79.86500033528557
 21
341.9550055556126
 72
     1
 10
79.86500033528557
 20
341.9550055556126
 11
79.86500033528557
 21
340.6462300454075
 72
     1
 10
79.86500033528557
 20
340.6462300454075
 11
78.62449592503268
 21
341.9550055556126
 97
       10
330
139
330
13A
330
13B
330
167
330
13C
330
13D
330
166
330
169
330
168
330
138
 75
     1
 76
     0
 52
45.0
 41
0.1
 77
     0
 78
     1
 53
45.0
 43
0.0
 44
0.0
 45
-0.0707106781186548
 46
0.0707106781186548
 79
     0
 98
        1
 10
0.0
 20
0.0
  0
HATCH
  5
248
330
71
100
AcDbEntity
  8
1
  6
Continuous
 62
     2
100
AcDbHatch
 10
0.0
 20
0.0
 30
0.0
210
0.0
220
0.0
230
1.0
  2
_USER
 70
     0
 71
     1
 91
        1
 92
        1
 93
       10
 72
     1
 10
78.62449592503268
 20
341.9550055556126
 11
77.43170322286508
 21
341.9550055556126
 72
     1
 10
77.43170322286508
 20
341.9550055556126
 11
77.43170322286508
 21
338.9011960318015
 72
     1
 10
77.43170322286508
 20
338.9011960318015
 11
78.62449592503268
 21
338.9011960318015
 72
     1
 10
78.62449592503268
 20
338.9011960318015
 11
78.62449592503268
 21
340.2099715420061
 72
     1
 10
78.62449592503268
 20
340.2099715420061
 11
79.86500033528557
 21
338.9011960318015
 72
     1
 10
79.86500033528557
 20
338.9011960318015
 11
81.05779303745197
 21
338.9011960318015
 72
     1
 10
81.05779303745197
 20
338.9011960318015
 11
81.05779303745197
 21
341.9550055556126
 72
     1
 10
81.05779303745197
 20
341.9550055556126
 11
79.86500033528557
 21
341.9550055556126
 72
     1
 10
79.86500033528557
 20
341.9550055556126
 11
79.86500033528557
 21
340.6462300454075
 72
     1
 10
79.86500033528557
 20
340.6462300454075
 11
78.62449592503268
 21
341.9550055556126
 97
       10
330
139
330
13A
330
13B
330
167
330
13C
330
13D
330
166
330
169
330
168
330
138
 75
     1
 76
     0
 52
45.0
 41
0.1
 77
     0
 78
     1
 53
45.0
 43
0.0
 44
0.0
 45
-0.0707106781186548
 46
0.0707106781186548
 79
     0
 98
        1
 10
0.0
 20
0.0
  0
HATCH
  5
249
330
71
100
AcDbEntity
  8
1
  6
Continuous
 62
     2
100
AcDbHatch
 10
0.0
 20
0.0
 30
0.0
210
0.0
220
0.0
230
1.0
  2
_USER
 70
     0
 71
     1
 91
        1
 92
        1
 93
       12
 72
     1
 10
77.62270098609727
 20
345.314196031787
 11
77.62270098609727
 21
342.2603865079758
 72
     1
 10
77.62270098609727
 20
342.2603865079758
 11
76.42990828393087
 21
342.2603865079758
 72
     1
 10
76.42990828393087
 20
342.2603865079758
 11
76.42990828393087
 21
343.3946586168196
 72
     1
 10
76.42990828393087
 20
343.3946586168196
 11
75.38025070602339
 21
343.3946586168196
 72
     1
 10
75.38025070602339
 20
343.3946586168196
 11
75.38025070602339
 21
342.2603865079758
 72
     1
 10
75.38025070602339
 20
342.2603865079758
 11
74.18745800385679
 21
342.2603865079758
 72
     1
 10
74.18745800385679
 20
342.2603865079758
 11
74.18745800385679
 21
345.314196031787
 72
     1
 10
74.18745800385679
 20
345.314196031787
 11
75.38025070602339
 21
345.314196031787
 72
     1
 10
75.38025070602339
 20
345.314196031787
 11
75.38025070602339
 21
344.2453626984524
 72
     1
 10
75.38025070602339
 20
344.2453626984524
 11
76.42990828393087
 21
344.2453626984524
 72
     1
 10
76.42990828393087
 20
344.2453626984524
 11
76.42990828393087
 21
345.314196031787
 72
     1
 10
76.42990828393087
 20
345.314196031787
 11
77.62270098609727
 21
345.314196031787
 97
       12
330
161
330
160
330
15F
330
147
330
148
330
15E
330
149
330
15D
330
15C
330
15B
330
145
330
146
 75
     1
 76
     0
 52
45.0
 41
0.1
 77
     0
 78
     1
 53
45.0
 43
0.0
 44
0.0
 45
-0.0707106781186548
 46
0.0707106781186548
 79
     0
 98
        1
 10
0.0
 20
0.0
  0
HATCH
  5
24A
330
71
100
AcDbEntity
  8
1
  6
Continuous
 62
     2
100
AcDbHatch
 10
0.0
 20
0.0
 30
0.0
210
0.0
220
0.0
230
1.0
  2
_USER
 70
     0
 71
     1
 91
        1
 92
        1
 93
       12
 72
     1
 10
77.62270098609727
 20
345.314196031787
 11
77.62270098609727
 21
342.2603865079758
 72
     1
 10
77.62270098609727
 20
342.2603865079758
 11
76.42990828393087
 21
342.2603865079758
 72
     1
 10
76.42990828393087
 20
342.2603865079758
 11
76.42990828393087
 21
343.3946586168196
 72
     1
 10
76.42990828393087
 20
343.3946586168196
 11
75.38025070602339
 21
343.3946586168196
 72
     1
 10
75.38025070602339
 20
343.3946586168196
 11
75.38025070602339
 21
342.2603865079758
 72
     1
 10
75.38025070602339
 20
342.2603865079758
 11
74.18745800385679
 21
342.2603865079758
 72
     1
 10
74.18745800385679
 20
342.2603865079758
 11
74.18745800385679
 21
345.314196031787
 72
     1
 10
74.18745800385679
 20
345.314196031787
 11
75.38025070602339
 21
345.314196031787
 72
     1
 10
75.38025070602339
 20
345.314196031787
 11
75.38025070602339
 21
344.2453626984524
 72
     1
 10
75.38025070602339
 20
344.2453626984524
 11
76.42990828393087
 21
344.2453626984524
 72
     1
 10
76.42990828393087
 20
344.2453626984524
 11
76.42990828393087
 21
345.314196031787
 72
     1
 10
76.42990828393087
 20
345.314196031787
 11
77.62270098609727
 21
345.314196031787
 97
       12
330
161
330
160
330
15F
330
147
330
148
330
15E
330
149
330
15D
330
15C
330
15B
330
145
330
146
 75
     1
 76
     0
 52
45.0
 41
0.1
 77
     0
 78
     1
 53
45.0
 43
0.0
 44
0.0
 45
-0.0707106781186548
 46
0.0707106781186548
 79
     0
 98
        1
 10
0.0
 20
0.0
  0
ENDBLK
  5
73
330
71
100
AcDbEntity
  8
0
100
AcDbBlockEnd
  0
BLOCK
  5
75
330
74
100
AcDbEntity
  8
0
100
AcDbBlockBegin
  2
_punkt
 70
     0
 10
189.5000047998862
 20
331.6076960317852
 30
0.0
  3
_punkt
  1

  0
LINE
  5
24B
330
74
100
AcDbEntity
  8
1
  6
Continuous
 62
     2
100
AcDbLine
 10
189.5000047998862
 20
331.6076960317852
 30
0.0
 11
189.5000047998862
 21
326.6076960317851
 31
0.0
  0
LINE
  5
24C
330
74
100
AcDbEntity
  8
1
  6
Continuous
 62
     2
100
AcDbLine
 10
189.5000047998862
 20
331.6076960317852
 30
0.0
 11
194.5000047998852
 21
331.6076960317852
 31
0.0
  0
ENDBLK
  5
76
330
74
100
AcDbEntity
  8
0
100
AcDbBlockEnd
  0
BLOCK
  5
7A
330
77
100
AcDbEntity
  8
0
100
AcDbBlockBegin
  2
A4I_CS
 70
     0
 10
189.5000047998862
 20
326.6076960317851
 30
0.0
  3
A4I_CS
  1

  0
INSERT
  5
78
330
77
100
AcDbEntity
  8
1
100
AcDbBlockReference
  2
_rahmen
 10
189.5000047998862
 20
326.6076960317851
 30
0.0
  0
INSERT
  5
79
330
77
100
AcDbEntity
  8
1
100
AcDbBlockReference
  2
_punkt
 10
189.5000047998862
 20
331.6076960317852
 30
0.0
  0
ENDBLK
  5
7B
330
77
100
AcDbEntity
  8
0
100
AcDbBlockEnd
  0
BLOCK
  5
ED
330
E4
100
AcDbEntity
  8
0
100
AcDbBlockBegin
  2
*D16
 70
     1
 10
0.0
 20
0.0
 30
0.0
  3
*D16
  1

  0
LINE
  5
E5
330
E4
100
AcDbEntity
  8
1
  6
Continuous
 62
     2
100
AcDbLine
 10
-26.50000390736025
 20
218.0000038605681
 30
0.0
 11
-23.00000390736025
 21
218.0000038605681
 31
0.0
  0
LINE
  5
E6
330
E4
100
AcDbEntity
  8
1
  6
Continuous
 62
     2
100
AcDbLine
 10
-30.50000390736025
 20
218.0000038605681
 30
0.0
 11
-26.50000390736025
 21
218.0000038605681
 31
0.0
  0
LINE
  5
E7
330
E4
100
AcDbEntity
  8
1
  6
Continuous
 62
     2
100
AcDbLine
 10
-34.00000390736025
 20
218.0000038605681
 30
0.0
 11
-30.50000390736025
 21
218.0000038605681
 31
0.0
  0
LINE
  5
E8
330
E4
100
AcDbEntity
  8
1
  6
Continuous
 62
     2
100
AcDbLine
 10
-26.50000390736025
 20
223.0000038605681
 30
0.0
 11
-26.50000390736025
 21
217.2500038605681
 31
0.0
  0
LINE
  5
E9
330
E4
100
AcDbEntity
  8
1
  6
Continuous
 62
     2
100
AcDbLine
 10
-30.50000390736025
 20
223.0000038605681
 30
0.0
 11
-30.50000390736025
 21
217.2500038605681
 31
0.0
  0
SOLID
  5
EA
330
E4
100
AcDbEntity
  8
1
 62
     2
100
AcDbTrace
 10
-32.25000390736025
 20
217.7696119897902
 30
0.0
 11
-32.25000390736025
 21
218.2303957313461
 31
0.0
 12
-30.50000390736025
 22
218.0000038605681
 32
0.0
 13
-30.50000390736025
 23
218.0000038605681
 33
0.0
  0
SOLID
  5
EB
330
E4
100
AcDbEntity
  8
1
 62
     2
100
AcDbTrace
 10
-24.75000390736025
 20
218.2303957313461
 30
0.0
 11
-24.75000390736025
 21
217.7696119897902
 31
0.0
 12
-26.50000390736025
 22
218.0000038605681
 32
0.0
 13
-26.50000390736025
 23
218.0000038605681
 33
0.0
  0
MTEXT
  5
EC
330
E4
100
AcDbEntity
  8
1
 62
     3
100
AcDbMText
 10
-29.02500390735524
 20
218.7500038605681
 30
0.0
 40
1.75
 41
0.0
 71
     7
 72
     1
  1
4
  7
CONVERTER_11
 11
0.9999999999970619
 21
2.424068405545306E-6
 31
0.0
 73
     1
 44
0.60024009603842
  0
ENDBLK
  5
EE
330
E4
100
AcDbEntity
  8
0
100
AcDbBlockEnd
  0
BLOCK
  5
105
330
FE
100
AcDbEntity
  8
0
100
AcDbBlockBegin
  2
*D17
 70
     1
 10
0.0
 20
0.0
 30
0.0
  3
*D17
  1

  0
LINE
  5
FF
330
FE
100
AcDbEntity
  8
1
  6
Continuous
 62
     2
100
AcDbLine
 10
-16.50000079989382
 20
223.0000038605682
 30
0.0
 11
-16.50000079989382
 21
245.0000038605682
 31
0.0
  0
LINE
  5
100
330
FE
100
AcDbEntity
  8
1
  6
Continuous
 62
     2
100
AcDbLine
 10
0.3999992001083
 20
245.0000038605682
 30
0.0
 11
-17.25000079989382
 21
245.0000038605682
 31
0.0
  0
LINE
  5
101
330
FE
100
AcDbEntity
  8
1
  6
Continuous
 62
     2
100
AcDbLine
 10
-8.78835889688357
 20
223.0000038605682
 30
0.0
 11
-17.25000079989382
 21
223.0000038605682
 31
0.0
  0
SOLID
  5
102
330
FE
100
AcDbEntity
  8
1
 62
     2
100
AcDbTrace
 10
-16.73039267067176
 20
224.7500038605682
 30
0.0
 11
-16.26960892911588
 21
224.7500038605682
 31
0.0
 12
-16.50000079989382
 22
223.0000038605682
 32
0.0
 13
-16.50000079989382
 23
223.0000038605682
 33
0.0
  0
SOLID
  5
103
330
FE
100
AcDbEntity
  8
1
 62
     2
100
AcDbTrace
 10
-16.26960892911588
 20
243.2500038605682
 30
0.0
 11
-16.73039267067176
 21
243.2500038605682
 31
0.0
 12
-16.50000079989382
 22
245.0000038605682
 32
0.0
 13
-16.50000079989382
 23
245.0000038605682
 33
0.0
  0
MTEXT
  5
104
330
FE
100
AcDbEntity
  8
1
 62
     3
100
AcDbMText
 10
-17.25000079989382
 20
232.6875038605682
 30
0.0
 40
1.75
 41
0.0
 71
     7
 72
     1
  1
22
  7
CONVERTER_11
 11
0.0
 21
1.0
 31
0.0
 73
     1
 44
0.60024009603842
  0
ENDBLK
  5
106
330
FE
100
AcDbEntity
  8
0
100
AcDbBlockEnd
  0
BLOCK
  5
110
330
109
100
AcDbEntity
  8
0
100
AcDbBlockBegin
  2
*D18
 70
     1
 10
0.0
 20
0.0
 30
0.0
  3
*D18
  1

  0
LINE
  5
10A
330
109
100
AcDbEntity
  8
1
  6
Continuous
 62
     2
100
AcDbLine
 10
-11.50000079989382
 20
218.0000038605681
 30
0.0
 11
20.49999920011001
 21
218.0000038605681
 31
0.0
  0
LINE
  5
10B
330
109
100
AcDbEntity
  8
1
  6
Continuous
 62
     2
100
AcDbLine
 10
20.49999920011001
 20
231.3000038605681
 30
0.0
 11
20.49999920011001
 21
217.2500038605681
 31
0.0
  0
LINE
  5
10C
330
109
100
AcDbEntity
  8
1
  6
Continuous
 62
     2
100
AcDbLine
 10
-11.50000079989382
 20
231.3000038605681
 30
0.0
 11
-11.50000079989382
 21
217.2500038605681
 31
0.0
  0
SOLID
  5
10D
330
109
100
AcDbEntity
  8
1
 62
     2
100
AcDbTrace
 10
-9.75000079989382
 20
218.2303957313461
 30
0.0
 11
-9.75000079989382
 21
217.7696119897902
 31
0.0
 12
-11.50000079989382
 22
218.0000038605681
 32
0.0
 13
-11.50000079989382
 23
218.0000038605681
 33
0.0
  0
SOLID
  5
10E
330
109
100
AcDbEntity
  8
1
 62
     2
100
AcDbTrace
 10
18.74999920011001
 20
217.7696119897902
 30
0.0
 11
18.74999920011001
 21
218.2303957313461
 31
0.0
 12
20.49999920011001
 22
218.0000038605681
 32
0.0
 13
20.49999920011001
 23
218.0000038605681
 33
0.0
  0
MTEXT
  5
10F
330
109
100
AcDbEntity
  8
1
 62
     3
100
AcDbMText
 10
3.1874992001081
 20
218.7500038605681
 30
0.0
 40
1.75
 41
0.0
 71
     7
 72
     1
  1
32
  7
CONVERTER_11
 11
0.9999999999970619
 21
2.424068405545306E-6
 31
0.0
 73
     1
 44
0.60024009603842
  0
ENDBLK
  5
111
330
109
100
AcDbEntity
  8
0
100
AcDbBlockEnd
  0
ENDSEC
  0
SECTION
  2
ENTITIES
  0
INSERT
  5
7C
330
1F
100
AcDbEntity
  8
0
100
AcDbBlockReference
  2
Allg1
 10
142.0000153535941
 20
400.000000159456
 30
0.0
 41
2.0
 42
2.0
 43
2.0
  0
INSERT
  5
7D
330
1F
100
AcDbEntity
  8
0
100
AcDbBlockReference
  2
Drfsicht1
 10
8.99999920010805
 20
412.000000092642
 30
0.0
 41
2.0
 42
2.0
 43
2.0
  0
INSERT
  5
7E
330
1F
100
AcDbEntity
  8
0
100
AcDbBlockReference
  2
Rckans1
 10
121.0000166145971
 20
468.000007779788
 30
0.0
 41
2.0
 42
2.0
 43
2.0
  0
INSERT
  5
7F
330
1F
100
AcDbEntity
  8
0
100
AcDbBlockReference
  2
SA_Links1
 10
65.00000781471044
 20
468.0000077797878
 30
0.0
 41
2.0
 42
2.0
 43
2.0
  0
INSERT
  5
80
330
1F
100
AcDbEntity
  8
0
100
AcDbBlockReference
  2
SA_Rechts1
 10
-57.0000078147105
 20
468.0000077797878
 30
0.0
 41
2.0
 42
2.0
 43
2.0
  0
INSERT
  5
81
330
1F
100
AcDbEntity
  8
0
100
AcDbBlockReference
  2
Vordans1
 10
8.99999920010805
 20
468.000007779788
 30
0.0
 41
2.0
 42
2.0
 43
2.0
  0
INSERT
  5
82
330
1F
100
AcDbEntity
  8
0
100
AcDbBlockReference
  2
A4I_CS
 10
189.5000047998862
 20
326.6076960317851
 30
0.0
  0
ENDSEC
  0
SECTION
  2
OBJECTS
  0
DICTIONARY
  5
C
330
0
100
AcDbDictionary
281
     1
  3
ACAD_GROUP
350
D
  3
ACAD_LAYOUT
350
1A
  3
ACAD_MATERIAL
350
3B
  3
ACAD_MLEADERSTYLE
350
24F
  3
ACAD_MLINESTYLE
350
17
  3
ACAD_PLOTSETTINGS
350
19
  3
ACAD_PLOTSTYLENAME
350
E
  3
ACAD_VISUALSTYLE
350
2A
  3
AcDbVariableDictionary
350
24D
  0
DICTIONARY
  5
D
102
{ACAD_REACTORS
330
C
102
}
330
C
100
AcDbDictionary
281
     1
  0
DICTIONARY
  5
1A
102
{ACAD_REACTORS
330
C
102
}
330
C
100
AcDbDictionary
281
     1
  3
Layout1
350
1E
  3
Layout2
350
26
  3
Model
350
22
  0
DICTIONARY
  5
3B
102
{ACAD_REACTORS
330
C
102
}
330
C
100
AcDbDictionary
281
     1
  3
ByBlock
350
3D
  3
ByLayer
350
3C
  3
Global
350
3E
  0
DICTIONARY
  5
24F
102
{ACAD_REACTORS
330
C
102
}
330
C
100
AcDbDictionary
281
     1
  0
DICTIONARY
  5
17
102
{ACAD_REACTORS
330
C
102
}
330
C
100
AcDbDictionary
281
     1
  3
Standard
350
18
  0
DICTIONARY
  5
19
102
{ACAD_REACTORS
330
C
102
}
330
C
100
AcDbDictionary
281
     1
  0
ACDBDICTIONARYWDFLT
  5
E
102
{ACAD_REACTORS
330
C
102
}
330
C
100
AcDbDictionary
281
     1
  3
Normal
350
F
100
AcDbDictionaryWithDefault
340
F
  0
DICTIONARY
  5
2A
102
{ACAD_REACTORS
330
C
102
}
330
C
100
AcDbDictionary
281
     1
  3
2dWireframe
350
2F
  3
3D Hidden
350
31
  3
3dWireframe
350
30
  3
Basic
350
32
  3
Brighten
350
36
  3
ColorChange
350
3A
  3
Conceptual
350
34
  3
Dim
350
35
  3
Facepattern
350
39
  3
Flat
350
2B
  3
FlatWithEdges
350
2C
  3
Gouraud
350
2D
  3
GouraudWithEdges
350
2E
  3
Linepattern
350
38
  3
Realistic
350
33
  3
Thicken
350
37
  0
DICTIONARY
  5
24D
102
{ACAD_REACTORS
330
C
102
}
330
C
100
AcDbDictionary
281
     1
  3
DIMASSOC
350
250
  3
HIDETEXT
350
251
  0
LAYOUT
  5
1E
102
{ACAD_REACTORS
330
1A
102
}
330
1A
100
AcDbPlotSettings
  1

  2
none_device
  4

  6

 40
0.0
 41
0.0
 42
0.0
 43
0.0
 44
0.0
 45
0.0
 46
0.0
 47
0.0
 48
0.0
 49
0.0
140
0.0
141
0.0
142
1.0
143
1.0
 70
   688
 72
     0
 73
     0
 74
     5
  7

 75
    16
147
1.0
148
0.0
149
0.0
100
AcDbLayout
  1
Layout1
 70
     1
 71
     1
 10
0.0
 20
0.0
 11
12.0
 21
9.0
 12
0.0
 22
0.0
 32
0.0
 14
1.00000000000000E+20
 24
1.00000000000000E+20
 34
1.00000000000000E+20
 15
-1.00000000000000E+20
 25
-1.00000000000000E+20
 35
-1.00000000000000E+20
146
0.0
 13
0.0
 23
0.0
 33
0.0
 16
1.0
 26
0.0
 36
0.0
 17
0.0
 27
1.0
 37
0.0
 76
     0
330
1B
  0
LAYOUT
  5
26
102
{ACAD_REACTORS
330
1A
102
}
330
1A
100
AcDbPlotSettings
  1

  2
none_device
  4

  6

 40
0.0
 41
0.0
 42
0.0
 43
0.0
 44
0.0
 45
0.0
 46
0.0
 47
0.0
 48
0.0
 49
0.0
140
0.0
141
0.0
142
1.0
143
1.0
 70
   688
 72
     0
 73
     0
 74
     5
  7

 75
    16
147
1.0
148
0.0
149
0.0
100
AcDbLayout
  1
Layout2
 70
     1
 71
     2
 10
0.0
 20
0.0
 11
0.0
 21
0.0
 12
0.0
 22
0.0
 32
0.0
 14
0.0
 24
0.0
 34
0.0
 15
0.0
 25
0.0
 35
0.0
146
0.0
 13
0.0
 23
0.0
 33
0.0
 16
1.0
 26
0.0
 36
0.0
 17
0.0
 27
1.0
 37
0.0
 76
     0
330
23
  0
LAYOUT
  5
22
102
{ACAD_REACTORS
330
1A
102
}
330
1A
100
AcDbPlotSettings
  1

  2
none_device
  4

  6

 40
0.0
 41
0.0
 42
0.0
 43
0.0
 44
0.0
 45
0.0
 46
0.0
 47
0.0
 48
0.0
 49
0.0
140
0.0
141
0.0
142
1.0
143
1.0
 70
  1712
 72
     0
 73
     0
 74
     0
  7

 75
     0
147
1.0
148
0.0
149
0.0
100
AcDbLayout
  1
Model
 70
     1
 71
     0
 10
0.0
 20
0.0
 11
12.0
 21
9.0
 12
0.0
 22
0.0
 32
0.0
 14
-102.4999952001129
 24
326.6076960317851
 34
0.0
 15
194.5000047998852
 25
536.6076960317852
 35
0.0
146
0.0
 13
0.0
 23
0.0
 33
0.0
 16
1.0
 26
0.0
 36
0.0
 17
0.0
 27
1.0
 37
0.0
 76
     0
330
1F
331
29
  0
MATERIAL
  5
3D
102
{ACAD_REACTORS
330
3B
102
}
102
{ACAD_XDICTIONARY
360
274
102
}
330
3B
100
AcDbMaterial
  1
ByBlock
  0
MATERIAL
  5
3C
102
{ACAD_REACTORS
330
3B
102
}
102
{ACAD_XDICTIONARY
360
272
102
}
330
3B
100
AcDbMaterial
  1
ByLayer
  0
MATERIAL
  5
3E
102
{ACAD_REACTORS
330
3B
102
}
102
{ACAD_XDICTIONARY
360
276
102
}
330
3B
100
AcDbMaterial
  1
Global
  0
MLINESTYLE
  5
18
102
{ACAD_REACTORS
330
17
102
}
330
17
100
AcDbMlineStyle
  2
Standard
 70
     0
  3

 62
   256
 51
90.0
 52
90.0
 71
     2
 49
0.5
 62
   256
  6
BYLAYER
 49
-0.5
 62
   256
  6
BYLAYER
  0
ACDBPLACEHOLDER
  5
F
102
{ACAD_REACTORS
330
E
102
}
330
E
  0
VISUALSTYLE
  5
2F
102
{ACAD_REACTORS
330
2A
102
}
102
{ACAD_XDICTIONARY
360
25A
102
}
330
2A
100
AcDbVisualStyle
  2
2dWireframe
 70
     4
 71
     0
 72
     2
 73
     0
 90
        0
 40
-0.6
 41
-30.0
 62
     5
 63
     7
 74
     1
 91
        4
 64
     7
 65
   257
 75
     1
175
     1
 42
1.0
 92
        0
 66
   257
 43
1.0
 76
     1
 77
     6
 78
     2
 67
     7
 79
     5
170
     0
171
     0
290
     0
174
     0
 93
        1
 44
0.0
173
     0
291
     0
 45
0.0
1001
ACAD
1000
AcDbSavedByObjectVersion
1070
     0
  0
VISUALSTYLE
  5
31
102
{ACAD_REACTORS
330
2A
102
}
102
{ACAD_XDICTIONARY
360
25E
102
}
330
2A
100
AcDbVisualStyle
  2
3D Hidden
 70
     6
 71
     1
 72
     2
 73
     2
 90
        0
 40
-0.6
 41
-30.0
 62
     5
 63
     7
 74
     2
 91
        2
 64
     7
 65
   257
 75
     2
175
     1
 42
40.0
 92
        0
 66
   257
 43
1.0
 76
     1
 77
     6
 78
     2
 67
     7
 79
     3
170
     0
171
     0
290
     0
174
     0
 93
        1
 44
0.0
173
     0
291
     0
 45
0.0
1001
ACAD
1000
AcDbSavedByObjectVersion
1070
     0
  0
VISUALSTYLE
  5
30
102
{ACAD_REACTORS
330
2A
102
}
102
{ACAD_XDICTIONARY
360
25C
102
}
330
2A
100
AcDbVisualStyle
  2
3dWireframe
 70
     5
 71
     0
 72
     2
 73
     0
 90
        0
 40
-0.6
 41
-30.0
 62
     5
 63
     7
 74
     1
 91
        4
 64
     7
 65
   257
 75
     1
175
     1
 42
1.0
 92
        0
 66
   257
 43
1.0
 76
     1
 77
     6
 78
     2
 67
     7
 79
     5
170
     0
171
     0
290
     0
174
     0
 93
        1
 44
0.0
173
     0
291
     0
 45
0.0
1001
ACAD
1000
AcDbSavedByObjectVersion
1070
     0
  0
VISUALSTYLE
  5
32
102
{ACAD_REACTORS
330
2A
102
}
102
{ACAD_XDICTIONARY
360
260
102
}
330
2A
100
AcDbVisualStyle
  2
Basic
 70
     7
 71
     1
 72
     0
 73
     1
 90
        0
 40
-0.6
 41
-30.0
 62
     5
 63
     7
 74
     0
 91
        4
 64
     7
 65
   257
 75
     1
175
     1
 42
1.0
 92
        8
 66
     7
 43
1.0
 76
     1
 77
     6
 78
     2
 67
     7
 79
     5
170
     0
171
     0
290
     0
174
     0
 93
        1
 44
0.0
173
     0
291
     1
 45
0.0
1001
ACAD
1000
AcDbSavedByObjectVersion
1070
     0
  0
VISUALSTYLE
  5
36
102
{ACAD_REACTORS
330
2A
102
}
102
{ACAD_XDICTIONARY
360
268
102
}
330
2A
100
AcDbVisualStyle
  2
Brighten
 70
    12
 71
     2
 72
     2
 73
     0
 90
        0
 40
-0.6
 41
-30.0
 62
     5
 63
     7
 74
     1
 91
        4
 64
     7
 65
   257
 75
     1
175
     1
 42
1.0
 92
        8
 66
     7
 43
1.0
 76
     1
 77
     6
 78
     2
 67
     7
 79
     5
170
     0
171
     0
290
     0
174
     0
 93
        1
 44
50.0
173
     0
291
     1
 45
0.0
1001
ACAD
1000
AcDbSavedByObjectVersion
1070
     0
  0
VISUALSTYLE
  5
3A
102
{ACAD_REACTORS
330
2A
102
}
102
{ACAD_XDICTIONARY
360
270
102
}
330
2A
100
AcDbVisualStyle
  2
ColorChange
 70
    16
 71
     2
 72
     2
 73
     3
 90
        0
 40
-0.6
 41
-30.0
 62
     5
 63
     8
 74
     1
 91
        4
 64
     7
 65
   257
 75
     1
175
     1
 42
1.0
 92
        8
 66
     8
 43
1.0
 76
     1
 77
     6
 78
     2
 67
     7
 79
     5
170
     0
171
     0
290
     0
174
     0
 93
        1
 44
0.0
173
     0
291
     1
 45
0.0
1001
ACAD
1000
AcDbSavedByObjectVersion
1070
     0
  0
VISUALSTYLE
  5
34
102
{ACAD_REACTORS
330
2A
102
}
102
{ACAD_XDICTIONARY
360
264
102
}
330
2A
100
AcDbVisualStyle
  2
Conceptual
 70
     9
 71
     3
 72
     2
 73
     0
 90
        0
 40
-0.6
 41
-30.0
 62
     5
 63
     7
 74
     2
 91
        2
 64
     7
 65
   257
 75
     1
175
     1
 42
40.0
 92
        8
 66
     7
 43
1.0
 76
     1
 77
     6
 78
     2
 67
     7
 79
     3
170
     0
171
     0
290
     0
174
     0
 93
        1
 44
0.0
173
     0
291
     0
 45
0.0
1001
ACAD
1000
AcDbSavedByObjectVersion
1070
     0
  0
VISUALSTYLE
  5
35
102
{ACAD_REACTORS
330
2A
102
}
102
{ACAD_XDICTIONARY
360
266
102
}
330
2A
100
AcDbVisualStyle
  2
Dim
 70
    11
 71
     2
 72
     2
 73
     0
 90
        0
 40
-0.6
 41
-30.0
 62
     5
 63
     7
 74
     1
 91
        4
 64
     7
 65
   257
 75
     1
175
     1
 42
1.0
 92
        8
 66
     7
 43
1.0
 76
     1
 77
     6
 78
     2
 67
     7
 79
     5
170
     0
171
     0
290
     0
174
     0
 93
        1
 44
-50.0
173
     0
291
     1
 45
0.0
1001
ACAD
1000
AcDbSavedByObjectVersion
1070
     0
  0
VISUALSTYLE
  5
39
102
{ACAD_REACTORS
330
2A
102
}
102
{ACAD_XDICTIONARY
360
26E
102
}
330
2A
100
AcDbVisualStyle
  2
Facepattern
 70
    15
 71
     2
 72
     2
 73
     0
 90
        0
 40
-0.6
 41
-30.0
 62
     5
 63
     7
 74
     1
 91
        4
 64
     7
 65
   257
 75
     1
175
     1
 42
1.0
 92
        8
 66
     7
 43
1.0
 76
     1
 77
     6
 78
     2
 67
     7
 79
     5
170
     0
171
     0
290
     0
174
     0
 93
        1
 44
0.0
173
     0
291
     1
 45
0.0
1001
ACAD
1000
AcDbSavedByObjectVersion
1070
     0
  0
VISUALSTYLE
  5
2B
102
{ACAD_REACTORS
330
2A
102
}
102
{ACAD_XDICTIONARY
360
252
102
}
330
2A
100
AcDbVisualStyle
  2
Flat
 70
     0
 71
     2
 72
     1
 73
     1
 90
        2
 40
-0.6
 41
30.0
 62
     5
 63
     7
 74
     0
 91
        4
 64
     7
 65
   257
 75
     1
175
     1
 42
1.0
 92
        8
 66
     7
 43
1.0
 76
     1
 77
     6
 78
     2
 67
     7
 79
     5
170
     0
171
     0
290
     0
174
     0
 93
       13
 44
0.0
173
     0
291
     1
 45
0.0
1001
ACAD
1000
AcDbSavedByObjectVersion
1070
     0
  0
VISUALSTYLE
  5
2C
102
{ACAD_REACTORS
330
2A
102
}
102
{ACAD_XDICTIONARY
360
254
102
}
330
2A
100
AcDbVisualStyle
  2
FlatWithEdges
 70
     1
 71
     2
 72
     1
 73
     1
 90
        2
 40
-0.6
 41
30.0
 62
     5
 63
     7
 74
     1
 91
        4
 64
     7
 65
   257
 75
     1
175
     1
 42
1.0
 92
        0
 66
   257
 43
1.0
 76
     1
 77
     6
 78
     2
 67
     7
 79
     5
170
     0
171
     0
290
     0
174
     0
 93
       13
 44
0.0
173
     0
291
     1
 45
0.0
1001
ACAD
1000
AcDbSavedByObjectVersion
1070
     0
  0
VISUALSTYLE
  5
2D
102
{ACAD_REACTORS
330
2A
102
}
102
{ACAD_XDICTIONARY
360
256
102
}
330
2A
100
AcDbVisualStyle
  2
Gouraud
 70
     2
 71
     2
 72
     2
 73
     1
 90
        2
 40
-0.6
 41
30.0
 62
     5
 63
     7
 74
     0
 91
        4
 64
     7
 65
   257
 75
     1
175
     1
 42
1.0
 92
        0
 66
     7
 43
1.0
 76
     1
 77
     6
 78
     2
 67
     7
 79
     5
170
     0
171
     0
290
     0
174
     0
 93
       13
 44
0.0
173
     0
291
     1
 45
0.0
1001
ACAD
1000
AcDbSavedByObjectVersion
1070
     0
  0
VISUALSTYLE
  5
2E
102
{ACAD_REACTORS
330
2A
102
}
102
{ACAD_XDICTIONARY
360
258
102
}
330
2A
100
AcDbVisualStyle
  2
GouraudWithEdges
 70
     3
 71
     2
 72
     2
 73
     1
 90
        2
 40
-0.6
 41
30.0
 62
     5
 63
     7
 74
     1
 91
        4
 64
     7
 65
   257
 75
     1
175
     1
 42
1.0
 92
        0
 66
   257
 43
1.0
 76
     1
 77
     6
 78
     2
 67
     7
 79
     5
170
     0
171
     0
290
     0
174
     0
 93
       13
 44
0.0
173
     0
291
     1
 45
0.0
1001
ACAD
1000
AcDbSavedByObjectVersion
1070
     0
  0
VISUALSTYLE
  5
38
102
{ACAD_REACTORS
330
2A
102
}
102
{ACAD_XDICTIONARY
360
26C
102
}
330
2A
100
AcDbVisualStyle
  2
Linepattern
 70
    14
 71
     2
 72
     2
 73
     0
 90
        0
 40
-0.6
 41
-30.0
 62
     5
 63
     7
 74
     1
 91
        4
 64
     7
 65
   257
 75
     7
175
     7
 42
1.0
 92
        8
 66
     7
 43
1.0
 76
     1
 77
     6
 78
     2
 67
     7
 79
     5
170
     0
171
     0
290
     0
174
     0
 93
        1
 44
0.0
173
     0
291
     1
 45
0.0
1001
ACAD
1000
AcDbSavedByObjectVersion
1070
     0
  0
VISUALSTYLE
  5
33
102
{ACAD_REACTORS
330
2A
102
}
102
{ACAD_XDICTIONARY
360
262
102
}
330
2A
100
AcDbVisualStyle
  2
Realistic
 70
     8
 71
     2
 72
     2
 73
     0
 90
        0
 40
-0.6
 41
-30.0
 62
     5
 63
     7
 74
     1
 91
        0
 64
     7
 65
   257
 75
     1
175
     1
 42
1.0
 92
        8
 66
     8
 43
1.0
 76
     1
 77
     6
 78
     2
 67
     7
 79
     5
170
     0
171
     0
290
     0
174
     0
 93
       13
 44
0.0
173
     0
291
     0
 45
0.0
1001
ACAD
1000
AcDbSavedByObjectVersion
1070
     0
  0
VISUALSTYLE
  5
37
102
{ACAD_REACTORS
330
2A
102
}
102
{ACAD_XDICTIONARY
360
26A
102
}
330
2A
100
AcDbVisualStyle
  2
Thicken
 70
    13
 71
     2
 72
     2
 73
     0
 90
        0
 40
-0.6
 41
-30.0
 62
     5
 63
     7
 74
     1
 91
        4
 64
     7
 65
   257
 75
     1
175
     1
 42
1.0
 92
       12
 66
     7
 43
1.0
 76
     1
 77
     6
 78
     2
 67
     7
 79
     5
170
     0
171
     0
290
     0
174
     0
 93
        1
 44
0.0
173
     0
291
     1
 45
0.0
1001
ACAD
1000
AcDbSavedByObjectVersion
1070
     0
  0
DICTIONARYVAR
  5
250
102
{ACAD_REACTORS
330
24D
102
}
330
24D
100
DictionaryVariables
280
     0
  1
2
  0
DICTIONARYVAR
  5
251
102
{ACAD_REACTORS
330
24D
102
}
330
24D
100
DictionaryVariables
280
     0
  1
1
  0
DICTIONARY
  5
274
330
3D
100
AcDbDictionary
280
     1
281
     1
  3
ACAD_XREC_ROUNDTRIP
360
275
  0
DICTIONARY
  5
272
330
3C
100
AcDbDictionary
280
     1
281
     1
  3
ACAD_XREC_ROUNDTRIP
360
273
  0
DICTIONARY
  5
276
330
3E
100
AcDbDictionary
280
     1
281
     1
  3
ACAD_XREC_ROUNDTRIP
360
277
  0
DICTIONARY
  5
25A
330
2F
100
AcDbDictionary
280
     1
281
     1
  3
ACAD_XREC_ROUNDTRIP
360
25B
  0
DICTIONARY
  5
25E
330
31
100
AcDbDictionary
280
     1
281
     1
  3
ACAD_XREC_ROUNDTRIP
360
25F
  0
DICTIONARY
  5
25C
330
30
100
AcDbDictionary
280
     1
281
     1
  3
ACAD_XREC_ROUNDTRIP
360
25D
  0
DICTIONARY
  5
260
330
32
100
AcDbDictionary
280
     1
281
     1
  3
ACAD_XREC_ROUNDTRIP
360
261
  0
DICTIONARY
  5
268
330
36
100
AcDbDictionary
280
     1
281
     1
  3
ACAD_XREC_ROUNDTRIP
360
269
  0
DICTIONARY
  5
270
330
3A
100
AcDbDictionary
280
     1
281
     1
  3
ACAD_XREC_ROUNDTRIP
360
271
  0
DICTIONARY
  5
264
330
34
100
AcDbDictionary
280
     1
281
     1
  3
ACAD_XREC_ROUNDTRIP
360
265
  0
DICTIONARY
  5
266
330
35
100
AcDbDictionary
280
     1
281
     1
  3
ACAD_XREC_ROUNDTRIP
360
267
  0
DICTIONARY
  5
26E
330
39
100
AcDbDictionary
280
     1
281
     1
  3
ACAD_XREC_ROUNDTRIP
360
26F
  0
DICTIONARY
  5
252
330
2B
100
AcDbDictionary
280
     1
281
     1
  3
ACAD_XREC_ROUNDTRIP
360
253
  0
DICTIONARY
  5
254
330
2C
100
AcDbDictionary
280
     1
281
     1
  3
ACAD_XREC_ROUNDTRIP
360
255
  0
DICTIONARY
  5
256
330
2D
100
AcDbDictionary
280
     1
281
     1
  3
ACAD_XREC_ROUNDTRIP
360
257
  0
DICTIONARY
  5
258
330
2E
100
AcDbDictionary
280
     1
281
     1
  3
ACAD_XREC_ROUNDTRIP
360
259
  0
DICTIONARY
  5
26C
330
38
100
AcDbDictionary
280
     1
281
     1
  3
ACAD_XREC_ROUNDTRIP
360
26D
  0
DICTIONARY
  5
262
330
33
100
AcDbDictionary
280
     1
281
     1
  3
ACAD_XREC_ROUNDTRIP
360
263
  0
DICTIONARY
  5
26A
330
37
100
AcDbDictionary
280
     1
281
     1
  3
ACAD_XREC_ROUNDTRIP
360
26B
  0
XRECORD
  5
275
102
{ACAD_REACTORS
330
274
102
}
330
274
100
AcDbXrecord
280
     1
102
MATERIAL
148
0.0
149
0.0
149
0.0
 93
        0
 94
      127
282
     0
 72
     1
 77
     1
171
     1
175
     1
179
     1
273
     0
  0
XRECORD
  5
273
102
{ACAD_REACTORS
330
272
102
}
330
272
100
AcDbXrecord
280
     1
102
MATERIAL
148
0.0
149
0.0
149
0.0
 93
        0
 94
      127
282
     0
 72
     1
 77
     1
171
     1
175
     1
179
     1
273
     0
  0
XRECORD
  5
277
102
{ACAD_REACTORS
330
276
102
}
330
276
100
AcDbXrecord
280
     1
102
MATERIAL
148
0.0
149
0.0
149
0.0
 93
        0
 94
      127
282
     0
 72
     1
 77
     1
171
     1
175
     1
179
     1
273
     0
  0
XRECORD
  5
25B
102
{ACAD_REACTORS
330
25A
102
}
330
25A
100
AcDbXrecord
280
     1
102
RTVSPropertyOp0
 70
     1
102
RTVSPropertyOp1
 70
     1
102
RTVSPropertyOp2
 70
     1
102
RTVSPropertyOp3
 70
     1
102
RTVSPropertyOp4
 70
     1
102
RTVSPropertyOp5
 70
     1
102
RTVSPropertyOp6
 70
     1
102
RTVSPropertyOp7
 70
     1
102
RTVSPropertyOp8
 70
     1
102
RTVSPropertyOp9
 70
     1
102
RTVSPropertyOp10
 70
     1
102
RTVSPropertyOp11
 70
     1
102
RTVSPropertyOp12
 70
     1
102
RTVSPropertyOp13
 70
     1
102
RTVSPropertyOp14
 70
     1
102
RTVSPropertyOp15
 70
     1
102
RTVSPropertyOp16
 70
     1
102
RTVSPropertyOp17
 70
     1
102
RTVSPropertyOp18
 70
     1
102
RTVSPropertyOp19
 70
     1
102
RTVSPropertyOp20
 70
     1
102
RTVSPropertyOp21
 70
     1
102
RTVSPropertyOp22
 70
     1
102
RTVSPropertyOp23
 70
     1
102
RTVSPropertyOp24
 70
     1
102
RTVSPropertyOp25
 70
     1
102
RTVSPropertyOp26
 70
     1
102
RTVSPropertyOp27
 70
     1
102
RTVSPropertyOp28
 70
     1
102
RTVSPropertyOp29
 70
     1
102
RTVSPropertyOp30
 70
     1
102
RTVSPropertyOp31
 70
     1
102
RTVSPropertyOp32
 70
     1
  0
XRECORD
  5
25F
102
{ACAD_REACTORS
330
25E
102
}
330
25E
100
AcDbXrecord
280
     1
102
RTVSPropertyOp0
 70
     1
102
RTVSPropertyOp1
 70
     1
102
RTVSPropertyOp2
 70
     1
102
RTVSPropertyOp3
 70
     1
102
RTVSPropertyOp4
 70
     1
102
RTVSPropertyOp5
 70
     1
102
RTVSPropertyOp6
 70
     1
102
RTVSPropertyOp7
 70
     1
102
RTVSPropertyOp8
 70
     1
102
RTVSPropertyOp9
 70
     1
102
RTVSPropertyOp10
 70
     1
102
RTVSPropertyOp11
 70
     1
102
RTVSPropertyOp12
 70
     1
102
RTVSPropertyOp13
 70
     1
102
RTVSPropertyOp14
 70
     1
102
RTVSPropertyOp15
 70
     1
102
RTVSPropertyOp16
 70
     1
102
RTVSPropertyOp17
 70
     1
102
RTVSPropertyOp18
 70
     1
102
RTVSPropertyOp19
 70
     1
102
RTVSPropertyOp20
 70
     1
102
RTVSPropertyOp21
 70
     1
102
RTVSPropertyOp22
 70
     1
102
RTVSPropertyOp23
 70
     1
102
RTVSPropertyOp24
 70
     1
102
RTVSPropertyOp25
 70
     1
102
RTVSPropertyOp26
 70
     1
102
RTVSPropertyOp27
 70
     1
102
RTVSPropertyOp28
 70
     1
102
RTVSPropertyOp29
 70
     1
102
RTVSPropertyOp30
 70
     1
102
RTVSPropertyOp31
 70
     1
102
RTVSPropertyOp32
 70
     1
  0
XRECORD
  5
25D
102
{ACAD_REACTORS
330
25C
102
}
330
25C
100
AcDbXrecord
280
     1
102
RTVSPropertyOp0
 70
     1
102
RTVSPropertyOp1
 70
     1
102
RTVSPropertyOp2
 70
     1
102
RTVSPropertyOp3
 70
     1
102
RTVSPropertyOp4
 70
     1
102
RTVSPropertyOp5
 70
     1
102
RTVSPropertyOp6
 70
     1
102
RTVSPropertyOp7
 70
     1
102
RTVSPropertyOp8
 70
     1
102
RTVSPropertyOp9
 70
     1
102
RTVSPropertyOp10
 70
     1
102
RTVSPropertyOp11
 70
     1
102
RTVSPropertyOp12
 70
     1
102
RTVSPropertyOp13
 70
     1
102
RTVSPropertyOp14
 70
     1
102
RTVSPropertyOp15
 70
     1
102
RTVSPropertyOp16
 70
     1
102
RTVSPropertyOp17
 70
     1
102
RTVSPropertyOp18
 70
     1
102
RTVSPropertyOp19
 70
     1
102
RTVSPropertyOp20
 70
     1
102
RTVSPropertyOp21
 70
     1
102
RTVSPropertyOp22
 70
     1
102
RTVSPropertyOp23
 70
     1
102
RTVSPropertyOp24
 70
     1
102
RTVSPropertyOp25
 70
     1
102
RTVSPropertyOp26
 70
     1
102
RTVSPropertyOp27
 70
     1
102
RTVSPropertyOp28
 70
     1
102
RTVSPropertyOp29
 70
     1
102
RTVSPropertyOp30
 70
     1
102
RTVSPropertyOp31
 70
     1
102
RTVSPropertyOp32
 70
     1
  0
XRECORD
  5
261
102
{ACAD_REACTORS
330
260
102
}
330
260
100
AcDbXrecord
280
     1
102
RTVSPropertyOp0
 70
     1
102
RTVSPropertyOp1
 70
     1
102
RTVSPropertyOp2
 70
     1
102
RTVSPropertyOp3
 70
     1
102
RTVSPropertyOp4
 70
     1
102
RTVSPropertyOp5
 70
     1
102
RTVSPropertyOp6
 70
     1
102
RTVSPropertyOp7
 70
     1
102
RTVSPropertyOp8
 70
     1
102
RTVSPropertyOp9
 70
     1
102
RTVSPropertyOp10
 70
     1
102
RTVSPropertyOp11
 70
     1
102
RTVSPropertyOp12
 70
     1
102
RTVSPropertyOp13
 70
     1
102
RTVSPropertyOp14
 70
     1
102
RTVSPropertyOp15
 70
     1
102
RTVSPropertyOp16
 70
     1
102
RTVSPropertyOp17
 70
     1
102
RTVSPropertyOp18
 70
     1
102
RTVSPropertyOp19
 70
     1
102
RTVSPropertyOp20
 70
     1
102
RTVSPropertyOp21
 70
     1
102
RTVSPropertyOp22
 70
     1
102
RTVSPropertyOp23
 70
     1
102
RTVSPropertyOp24
 70
     1
102
RTVSPropertyOp25
 70
     1
102
RTVSPropertyOp26
 70
     1
102
RTVSPropertyOp27
 70
     1
102
RTVSPropertyOp28
 70
     1
102
RTVSPropertyOp29
 70
     1
102
RTVSPropertyOp30
 70
     1
102
RTVSPropertyOp31
 70
     1
102
RTVSPropertyOp32
 70
     1
  0
XRECORD
  5
269
102
{ACAD_REACTORS
330
268
102
}
330
268
100
AcDbXrecord
280
     1
102
RTVSPropertyOp0
 70
     1
102
RTVSPropertyOp1
 70
     1
102
RTVSPropertyOp2
 70
     1
102
RTVSPropertyOp3
 70
     1
102
RTVSPropertyOp4
 70
     1
102
RTVSPropertyOp5
 70
     1
102
RTVSPropertyOp6
 70
     1
102
RTVSPropertyOp7
 70
     1
102
RTVSPropertyOp8
 70
     1
102
RTVSPropertyOp9
 70
     1
102
RTVSPropertyOp10
 70
     1
102
RTVSPropertyOp11
 70
     1
102
RTVSPropertyOp12
 70
     1
102
RTVSPropertyOp13
 70
     1
102
RTVSPropertyOp14
 70
     1
102
RTVSPropertyOp15
 70
     1
102
RTVSPropertyOp16
 70
     1
102
RTVSPropertyOp17
 70
     1
102
RTVSPropertyOp18
 70
     1
102
RTVSPropertyOp19
 70
     1
102
RTVSPropertyOp20
 70
     1
102
RTVSPropertyOp21
 70
     1
102
RTVSPropertyOp22
 70
     1
102
RTVSPropertyOp23
 70
     1
102
RTVSPropertyOp24
 70
     1
102
RTVSPropertyOp25
 70
     1
102
RTVSPropertyOp26
 70
     1
102
RTVSPropertyOp27
 70
     1
102
RTVSPropertyOp28
 70
     1
102
RTVSPropertyOp29
 70
     1
102
RTVSPropertyOp30
 70
     1
102
RTVSPropertyOp31
 70
     1
102
RTVSPropertyOp32
 70
     1
  0
XRECORD
  5
271
102
{ACAD_REACTORS
330
270
102
}
330
270
100
AcDbXrecord
280
     1
102
RTVSPropertyOp0
 70
     1
102
RTVSPropertyOp1
 70
     1
102
RTVSPropertyOp2
 70
     1
102
RTVSPropertyOp3
 70
     1
102
RTVSPropertyOp4
 70
     1
102
RTVSPropertyOp5
 70
     1
102
RTVSPropertyOp6
 70
     1
102
RTVSPropertyOp7
 70
     1
102
RTVSPropertyOp8
 70
     1
102
RTVSPropertyOp9
 70
     1
102
RTVSPropertyOp10
 70
     1
102
RTVSPropertyOp11
 70
     1
102
RTVSPropertyOp12
 70
     1
102
RTVSPropertyOp13
 70
     1
102
RTVSPropertyOp14
 70
     1
102
RTVSPropertyOp15
 70
     1
102
RTVSPropertyOp16
 70
     1
102
RTVSPropertyOp17
 70
     1
102
RTVSPropertyOp18
 70
     1
102
RTVSPropertyOp19
 70
     1
102
RTVSPropertyOp20
 70
     1
102
RTVSPropertyOp21
 70
     1
102
RTVSPropertyOp22
 70
     1
102
RTVSPropertyOp23
 70
     1
102
RTVSPropertyOp24
 70
     1
102
RTVSPropertyOp25
 70
     1
102
RTVSPropertyOp26
 70
     1
102
RTVSPropertyOp27
 70
     1
102
RTVSPropertyOp28
 70
     1
102
RTVSPropertyOp29
 70
     1
102
RTVSPropertyOp30
 70
     1
102
RTVSPropertyOp31
 70
     1
102
RTVSPropertyOp32
 70
     1
  0
XRECORD
  5
265
102
{ACAD_REACTORS
330
264
102
}
330
264
100
AcDbXrecord
280
     1
102
RTVSPropertyOp0
 70
     1
102
RTVSPropertyOp1
 70
     1
102
RTVSPropertyOp2
 70
     1
102
RTVSPropertyOp3
 70
     1
102
RTVSPropertyOp4
 70
     1
102
RTVSPropertyOp5
 70
     1
102
RTVSPropertyOp6
 70
     1
102
RTVSPropertyOp7
 70
     1
102
RTVSPropertyOp8
 70
     1
102
RTVSPropertyOp9
 70
     1
102
RTVSPropertyOp10
 70
     1
102
RTVSPropertyOp11
 70
     1
102
RTVSPropertyOp12
 70
     1
102
RTVSPropertyOp13
 70
     1
102
RTVSPropertyOp14
 70
     1
102
RTVSPropertyOp15
 70
     1
102
RTVSPropertyOp16
 70
     1
102
RTVSPropertyOp17
 70
     1
102
RTVSPropertyOp18
 70
     1
102
RTVSPropertyOp19
 70
     1
102
RTVSPropertyOp20
 70
     1
102
RTVSPropertyOp21
 70
     1
102
RTVSPropertyOp22
 70
     1
102
RTVSPropertyOp23
 70
     1
102
RTVSPropertyOp24
 70
     1
102
RTVSPropertyOp25
 70
     1
102
RTVSPropertyOp26
 70
     1
102
RTVSPropertyOp27
 70
     1
102
RTVSPropertyOp28
 70
     1
102
RTVSPropertyOp29
 70
     1
102
RTVSPropertyOp30
 70
     1
102
RTVSPropertyOp31
 70
     1
102
RTVSPropertyOp32
 70
     1
  0
XRECORD
  5
267
102
{ACAD_REACTORS
330
266
102
}
330
266
100
AcDbXrecord
280
     1
102
RTVSPropertyOp0
 70
     1
102
RTVSPropertyOp1
 70
     1
102
RTVSPropertyOp2
 70
     1
102
RTVSPropertyOp3
 70
     1
102
RTVSPropertyOp4
 70
     1
102
RTVSPropertyOp5
 70
     1
102
RTVSPropertyOp6
 70
     1
102
RTVSPropertyOp7
 70
     1
102
RTVSPropertyOp8
 70
     1
102
RTVSPropertyOp9
 70
     1
102
RTVSPropertyOp10
 70
     1
102
RTVSPropertyOp11
 70
     1
102
RTVSPropertyOp12
 70
     1
102
RTVSPropertyOp13
 70
     1
102
RTVSPropertyOp14
 70
     1
102
RTVSPropertyOp15
 70
     1
102
RTVSPropertyOp16
 70
     1
102
RTVSPropertyOp17
 70
     1
102
RTVSPropertyOp18
 70
     1
102
RTVSPropertyOp19
 70
     1
102
RTVSPropertyOp20
 70
     1
102
RTVSPropertyOp21
 70
     1
102
RTVSPropertyOp22
 70
     1
102
RTVSPropertyOp23
 70
     1
102
RTVSPropertyOp24
 70
     1
102
RTVSPropertyOp25
 70
     1
102
RTVSPropertyOp26
 70
     1
102
RTVSPropertyOp27
 70
     1
102
RTVSPropertyOp28
 70
     1
102
RTVSPropertyOp29
 70
     1
102
RTVSPropertyOp30
 70
     1
102
RTVSPropertyOp31
 70
     1
102
RTVSPropertyOp32
 70
     1
  0
XRECORD
  5
26F
102
{ACAD_REACTORS
330
26E
102
}
330
26E
100
AcDbXrecord
280
     1
102
RTVSPropertyOp0
 70
     1
102
RTVSPropertyOp1
 70
     1
102
RTVSPropertyOp2
 70
     1
102
RTVSPropertyOp3
 70
     1
102
RTVSPropertyOp4
 70
     1
102
RTVSPropertyOp5
 70
     1
102
RTVSPropertyOp6
 70
     1
102
RTVSPropertyOp7
 70
     1
102
RTVSPropertyOp8
 70
     1
102
RTVSPropertyOp9
 70
     1
102
RTVSPropertyOp10
 70
     1
102
RTVSPropertyOp11
 70
     1
102
RTVSPropertyOp12
 70
     1
102
RTVSPropertyOp13
 70
     1
102
RTVSPropertyOp14
 70
     1
102
RTVSPropertyOp15
 70
     1
102
RTVSPropertyOp16
 70
     1
102
RTVSPropertyOp17
 70
     1
102
RTVSPropertyOp18
 70
     1
102
RTVSPropertyOp19
 70
     1
102
RTVSPropertyOp20
 70
     1
102
RTVSPropertyOp21
 70
     1
102
RTVSPropertyOp22
 70
     1
102
RTVSPropertyOp23
 70
     1
102
RTVSPropertyOp24
 70
     1
102
RTVSPropertyOp25
 70
     1
102
RTVSPropertyOp26
 70
     1
102
RTVSPropertyOp27
 70
     1
102
RTVSPropertyOp28
 70
     1
102
RTVSPropertyOp29
 70
     1
102
RTVSPropertyOp30
 70
     1
102
RTVSPropertyOp31
 70
     1
102
RTVSPropertyOp32
 70
     1
  0
XRECORD
  5
253
102
{ACAD_REACTORS
330
252
102
}
330
252
100
AcDbXrecord
280
     1
102
RTVSPropertyOp0
 70
     1
102
RTVSPropertyOp1
 70
     1
102
RTVSPropertyOp2
 70
     1
102
RTVSPropertyOp3
 70
     1
102
RTVSPropertyOp4
 70
     1
102
RTVSPropertyOp5
 70
     1
102
RTVSPropertyOp6
 70
     1
102
RTVSPropertyOp7
 70
     1
102
RTVSPropertyOp8
 70
     1
102
RTVSPropertyOp9
 70
     1
102
RTVSPropertyOp10
 70
     1
102
RTVSPropertyOp11
 70
     1
102
RTVSPropertyOp12
 70
     1
102
RTVSPropertyOp13
 70
     1
102
RTVSPropertyOp14
 70
     1
102
RTVSPropertyOp15
 70
     1
102
RTVSPropertyOp16
 70
     1
102
RTVSPropertyOp17
 70
     1
102
RTVSPropertyOp18
 70
     1
102
RTVSPropertyOp19
 70
     1
102
RTVSPropertyOp20
 70
     1
102
RTVSPropertyOp21
 70
     1
102
RTVSPropertyOp22
 70
     1
102
RTVSPropertyOp23
 70
     1
102
RTVSPropertyOp24
 70
     1
102
RTVSPropertyOp25
 70
     1
102
RTVSPropertyOp26
 70
     1
102
RTVSPropertyOp27
 70
     1
102
RTVSPropertyOp28
 70
     1
102
RTVSPropertyOp29
 70
     1
102
RTVSPropertyOp30
 70
     1
102
RTVSPropertyOp31
 70
     1
102
RTVSPropertyOp32
 70
     1
  0
XRECORD
  5
255
102
{ACAD_REACTORS
330
254
102
}
330
254
100
AcDbXrecord
280
     1
102
RTVSPropertyOp0
 70
     1
102
RTVSPropertyOp1
 70
     1
102
RTVSPropertyOp2
 70
     1
102
RTVSPropertyOp3
 70
     1
102
RTVSPropertyOp4
 70
     1
102
RTVSPropertyOp5
 70
     1
102
RTVSPropertyOp6
 70
     1
102
RTVSPropertyOp7
 70
     1
102
RTVSPropertyOp8
 70
     1
102
RTVSPropertyOp9
 70
     1
102
RTVSPropertyOp10
 70
     1
102
RTVSPropertyOp11
 70
     1
102
RTVSPropertyOp12
 70
     1
102
RTVSPropertyOp13
 70
     1
102
RTVSPropertyOp14
 70
     1
102
RTVSPropertyOp15
 70
     1
102
RTVSPropertyOp16
 70
     1
102
RTVSPropertyOp17
 70
     1
102
RTVSPropertyOp18
 70
     1
102
RTVSPropertyOp19
 70
     1
102
RTVSPropertyOp20
 70
     1
102
RTVSPropertyOp21
 70
     1
102
RTVSPropertyOp22
 70
     1
102
RTVSPropertyOp23
 70
     1
102
RTVSPropertyOp24
 70
     1
102
RTVSPropertyOp25
 70
     1
102
RTVSPropertyOp26
 70
     1
102
RTVSPropertyOp27
 70
     1
102
RTVSPropertyOp28
 70
     1
102
RTVSPropertyOp29
 70
     1
102
RTVSPropertyOp30
 70
     1
102
RTVSPropertyOp31
 70
     1
102
RTVSPropertyOp32
 70
     1
  0
XRECORD
  5
257
102
{ACAD_REACTORS
330
256
102
}
330
256
100
AcDbXrecord
280
     1
102
RTVSPropertyOp0
 70
     1
102
RTVSPropertyOp1
 70
     1
102
RTVSPropertyOp2
 70
     1
102
RTVSPropertyOp3
 70
     1
102
RTVSPropertyOp4
 70
     1
102
RTVSPropertyOp5
 70
     1
102
RTVSPropertyOp6
 70
     1
102
RTVSPropertyOp7
 70
     1
102
RTVSPropertyOp8
 70
     1
102
RTVSPropertyOp9
 70
     1
102
RTVSPropertyOp10
 70
     1
102
RTVSPropertyOp11
 70
     1
102
RTVSPropertyOp12
 70
     1
102
RTVSPropertyOp13
 70
     1
102
RTVSPropertyOp14
 70
     1
102
RTVSPropertyOp15
 70
     1
102
RTVSPropertyOp16
 70
     1
102
RTVSPropertyOp17
 70
     1
102
RTVSPropertyOp18
 70
     1
102
RTVSPropertyOp19
 70
     1
102
RTVSPropertyOp20
 70
     1
102
RTVSPropertyOp21
 70
     1
102
RTVSPropertyOp22
 70
     1
102
RTVSPropertyOp23
 70
     1
102
RTVSPropertyOp24
 70
     1
102
RTVSPropertyOp25
 70
     1
102
RTVSPropertyOp26
 70
     1
102
RTVSPropertyOp27
 70
     1
102
RTVSPropertyOp28
 70
     1
102
RTVSPropertyOp29
 70
     1
102
RTVSPropertyOp30
 70
     1
102
RTVSPropertyOp31
 70
     1
102
RTVSPropertyOp32
 70
     1
  0
XRECORD
  5
259
102
{ACAD_REACTORS
330
258
102
}
330
258
100
AcDbXrecord
280
     1
102
RTVSPropertyOp0
 70
     1
102
RTVSPropertyOp1
 70
     1
102
RTVSPropertyOp2
 70
     1
102
RTVSPropertyOp3
 70
     1
102
RTVSPropertyOp4
 70
     1
102
RTVSPropertyOp5
 70
     1
102
RTVSPropertyOp6
 70
     1
102
RTVSPropertyOp7
 70
     1
102
RTVSPropertyOp8
 70
     1
102
RTVSPropertyOp9
 70
     1
102
RTVSPropertyOp10
 70
     1
102
RTVSPropertyOp11
 70
     1
102
RTVSPropertyOp12
 70
     1
102
RTVSPropertyOp13
 70
     1
102
RTVSPropertyOp14
 70
     1
102
RTVSPropertyOp15
 70
     1
102
RTVSPropertyOp16
 70
     1
102
RTVSPropertyOp17
 70
     1
102
RTVSPropertyOp18
 70
     1
102
RTVSPropertyOp19
 70
     1
102
RTVSPropertyOp20
 70
     1
102
RTVSPropertyOp21
 70
     1
102
RTVSPropertyOp22
 70
     1
102
RTVSPropertyOp23
 70
     1
102
RTVSPropertyOp24
 70
     1
102
RTVSPropertyOp25
 70
     1
102
RTVSPropertyOp26
 70
     1
102
RTVSPropertyOp27
 70
     1
102
RTVSPropertyOp28
 70
     1
102
RTVSPropertyOp29
 70
     1
102
RTVSPropertyOp30
 70
     1
102
RTVSPropertyOp31
 70
     1
102
RTVSPropertyOp32
 70
     1
  0
XRECORD
  5
26D
102
{ACAD_REACTORS
330
26C
102
}
330
26C
100
AcDbXrecord
280
     1
102
RTVSPropertyOp0
 70
     1
102
RTVSPropertyOp1
 70
     1
102
RTVSPropertyOp2
 70
     1
102
RTVSPropertyOp3
 70
     1
102
RTVSPropertyOp4
 70
     1
102
RTVSPropertyOp5
 70
     1
102
RTVSPropertyOp6
 70
     1
102
RTVSPropertyOp7
 70
     1
102
RTVSPropertyOp8
 70
     1
102
RTVSPropertyOp9
 70
     1
102
RTVSPropertyOp10
 70
     1
102
RTVSPropertyOp11
 70
     1
102
RTVSPropertyOp12
 70
     1
102
RTVSPropertyOp13
 70
     1
102
RTVSPropertyOp14
 70
     1
102
RTVSPropertyOp15
 70
     1
102
RTVSPropertyOp16
 70
     1
102
RTVSPropertyOp17
 70
     1
102
RTVSPropertyOp18
 70
     1
102
RTVSPropertyOp19
 70
     1
102
RTVSPropertyOp20
 70
     1
102
RTVSPropertyOp21
 70
     1
102
RTVSPropertyOp22
 70
     1
102
RTVSPropertyOp23
 70
     1
102
RTVSPropertyOp24
 70
     1
102
RTVSPropertyOp25
 70
     1
102
RTVSPropertyOp26
 70
     1
102
RTVSPropertyOp27
 70
     1
102
RTVSPropertyOp28
 70
     1
102
RTVSPropertyOp29
 70
     1
102
RTVSPropertyOp30
 70
     1
102
RTVSPropertyOp31
 70
     1
102
RTVSPropertyOp32
 70
     1
  0
XRECORD
  5
263
102
{ACAD_REACTORS
330
262
102
}
330
262
100
AcDbXrecord
280
     1
102
RTVSPropertyOp0
 70
     1
102
RTVSPropertyOp1
 70
     1
102
RTVSPropertyOp2
 70
     1
102
RTVSPropertyOp3
 70
     1
102
RTVSPropertyOp4
 70
     1
102
RTVSPropertyOp5
 70
     1
102
RTVSPropertyOp6
 70
     1
102
RTVSPropertyOp7
 70
     1
102
RTVSPropertyOp8
 70
     1
102
RTVSPropertyOp9
 70
     1
102
RTVSPropertyOp10
 70
     1
102
RTVSPropertyOp11
 70
     1
102
RTVSPropertyOp12
 70
     1
102
RTVSPropertyOp13
 70
     1
102
RTVSPropertyOp14
 70
     1
102
RTVSPropertyOp15
 70
     1
102
RTVSPropertyOp16
 70
     1
102
RTVSPropertyOp17
 70
     1
102
RTVSPropertyOp18
 70
     1
102
RTVSPropertyOp19
 70
     1
102
RTVSPropertyOp20
 70
     1
102
RTVSPropertyOp21
 70
     1
102
RTVSPropertyOp22
 70
     1
102
RTVSPropertyOp23
 70
     1
102
RTVSPropertyOp24
 70
     1
102
RTVSPropertyOp25
 70
     1
102
RTVSPropertyOp26
 70
     1
102
RTVSPropertyOp27
 70
     1
102
RTVSPropertyOp28
 70
     1
102
RTVSPropertyOp29
 70
     1
102
RTVSPropertyOp30
 70
     1
102
RTVSPropertyOp31
 70
     1
102
RTVSPropertyOp32
 70
     1
  0
XRECORD
  5
26B
102
{ACAD_REACTORS
330
26A
102
}
330
26A
100
AcDbXrecord
280
     1
102
RTVSPropertyOp0
 70
     1
102
RTVSPropertyOp1
 70
     1
102
RTVSPropertyOp2
 70
     1
102
RTVSPropertyOp3
 70
     1
102
RTVSPropertyOp4
 70
     1
102
RTVSPropertyOp5
 70
     1
102
RTVSPropertyOp6
 70
     1
102
RTVSPropertyOp7
 70
     1
102
RTVSPropertyOp8
 70
     1
102
RTVSPropertyOp9
 70
     1
102
RTVSPropertyOp10
 70
     1
102
RTVSPropertyOp11
 70
     1
102
RTVSPropertyOp12
 70
     1
102
RTVSPropertyOp13
 70
     1
102
RTVSPropertyOp14
 70
     1
102
RTVSPropertyOp15
 70
     1
102
RTVSPropertyOp16
 70
     1
102
RTVSPropertyOp17
 70
     1
102
RTVSPropertyOp18
 70
     1
102
RTVSPropertyOp19
 70
     1
102
RTVSPropertyOp20
 70
     1
102
RTVSPropertyOp21
 70
     1
102
RTVSPropertyOp22
 70
     1
102
RTVSPropertyOp23
 70
     1
102
RTVSPropertyOp24
 70
     1
102
RTVSPropertyOp25
 70
     1
102
RTVSPropertyOp26
 70
     1
102
RTVSPropertyOp27
 70
     1
102
RTVSPropertyOp28
 70
     1
102
RTVSPropertyOp29
 70
     1
102
RTVSPropertyOp30
 70
     1
102
RTVSPropertyOp31
 70
     1
102
RTVSPropertyOp32
 70
     1
  0
ENDSEC
  0
EOF
